<?xml version="1.0" standalone="no"?>
<!DOCTYPE svg PUBLIC "-//W3C//DTD SVG 1.1//EN" "http://www.w3.org/Graphics/SVG/1.1/DTD/svg11.dtd" >
<svg xmlns="http://www.w3.org/2000/svg" xmlns:xlink="http://www.w3.org/1999/xlink" version="1.1">
<metadata>
Created by FontForge 20170731 at Fri Nov 26 14:28:19 2021
 By Aleksey,,,
Copyright (c) 1987, 1991, 1992, 1993 Adobe Systems Incorporated.  All Rights Reserved.Futura is a registered trademark of Fundicion Tipografica Neufville S.A.
</metadata>
<defs>
<font id="Futura-CondensedLight" horiz-adv-x="851" >
  <font-face 
    font-family="Futura CondensedLight"
    font-weight="300"
    font-stretch="condensed"
    units-per-em="2048"
    panose-1="2 11 4 6 0 0 0 0 0 0"
    ascent="1595"
    descent="-453"
    x-height="1051"
    cap-height="1544"
    bbox="-256 -453 1812 1968"
    underline-thickness="102"
    underline-position="-307"
    unicode-range="U+0020-FB02"
  />
<missing-glyph horiz-adv-x="425" 
 />
    <glyph glyph-name=".notdef" horiz-adv-x="425" 
 />
    <glyph glyph-name=".null" horiz-adv-x="0" 
 />
    <glyph glyph-name="nonmarkingreturn" horiz-adv-x="682" 
 />
    <glyph glyph-name="space" unicode=" " horiz-adv-x="425" 
 />
    <glyph glyph-name="space" unicode="&#xa0;" horiz-adv-x="425" 
 />
    <glyph glyph-name="exclam" unicode="!" horiz-adv-x="702" 
d="M283 387v1157h137v-1157h-137zM352 193q43 0 74 -31t31 -74t-31 -73.5t-74 -30.5t-73.5 30.5t-30.5 73.5t30.5 74t73.5 31z" />
    <glyph glyph-name="quotedbl" unicode="&#x22;" horiz-adv-x="632" 
d="M131 1081l-16 463h153l-16 -463h-121zM383 1081l-16 463h153l-16 -463h-121z" />
    <glyph glyph-name="numbersign" unicode="#" 
d="M72 0l131 510h-205l31 104h198l70 269h-203l31 104h197l133 537h98l-135 -537h143l133 537h97l-134 -537h197l-31 -104h-188l-70 -269h193l-31 -104h-186l-127 -510h-103l131 510h-143l-131 -510h-96zM324 614h143l70 269h-142z" />
    <glyph glyph-name="dollar" unicode="$" 
d="M362 -193v193q-169 21 -278 133l88 100q126 -102 229 -102q113 0 180.5 79.5t67.5 190.5q0 37 -8 69.5t-19 57.5t-33 50t-39.5 41.5t-50.5 38t-53 33.5t-59 34q-78 44 -130 81.5t-100.5 89.5t-72 117t-23.5 146q0 150 76.5 252t224.5 129v180h101v-176q134 -9 258 -92
l-74 -109q-113 70 -211 70q-108 0 -171.5 -68.5t-63.5 -173.5q0 -38 8.5 -72t19.5 -59t35 -51t41 -42t51.5 -38.5t53 -33t59.5 -33.5q6 -3 9 -5t8.5 -5t9.5 -5q53 -30 87 -52.5t77 -61t68 -79t42.5 -100.5t17.5 -131q0 -150 -88.5 -262.5t-236.5 -136.5v-197h-101z" />
    <glyph glyph-name="percent" unicode="%" horiz-adv-x="1067" 
d="M903 1544l-667 -1544h-70l672 1544h65zM827 770q44 0 77.5 -18t53.5 -53.5t32.5 -70.5t17.5 -87t6.5 -85t1.5 -81t-1.5 -81t-6.5 -85t-17.5 -87t-32.5 -70.5t-53.5 -53.5t-77.5 -18q-38 0 -68 15t-49.5 37t-33.5 58.5t-21 67.5t-11 76t-4.5 72.5t-0.5 68.5t0.5 68.5
t4.5 72.5t11 76t21 67.5t33.5 58.5t49.5 37t68 15zM827 692q-23 0 -41 -14t-28.5 -41t-17.5 -56t-10 -69t-4 -69.5t-1 -67.5q0 -47 1.5 -82t7 -82.5t16 -78.5t30.5 -53t47 -22q23 0 41 14t28.5 41t18 56.5t10.5 69t4 69.5t1 68t-1 67.5t-4 69.5t-10.5 69t-18 56t-28.5 41
t-41 14zM240 1565q38 0 68 -15t49.5 -37.5t33.5 -58.5t21 -67.5t11 -76.5t4.5 -72.5t0.5 -68.5t-0.5 -68.5t-4.5 -72.5t-11 -76t-21 -67.5t-33.5 -58.5t-49.5 -37t-68 -15q-44 0 -77.5 18t-53.5 53.5t-32.5 70.5t-17.5 87t-6.5 85t-1.5 81q0 40 0.5 68t4.5 73t11 76.5
t21 67.5t33.5 58.5t50 37.5t68.5 15zM240 1487q-23 0 -41 -14t-28.5 -41t-18 -56.5t-10.5 -69t-4 -69.5t-1 -68t1 -67.5t4 -69.5t10.5 -69t18 -56t28.5 -41t41 -14t41 14t28.5 41t17.5 56t10 69t4 69.5t1 67.5q0 47 -1.5 82t-7 82.5t-16 78.5t-30.5 53t-47 22z" />
    <glyph glyph-name="ampersand" unicode="&#x26;" horiz-adv-x="1083" 
d="M721 201l-283 518q-153 -161 -153 -316q0 -109 63 -198t166 -96q111 3 207 92zM823 0l-45 84q-113 -104 -258 -104q-112 0 -199 62t-130.5 158t-43.5 206q0 239 228 436l-6 12q-42 78 -65 124.5t-47 122t-24 136.5q0 128 88.5 217.5t210.5 89.5q126 0 205.5 -83
t79.5 -214q0 -50 -16.5 -100.5t-40 -90.5t-61.5 -84.5t-68.5 -74.5t-73.5 -68l-12 -10l266 -512l96 119l11 14l96 -94l-137 -158l96 -188h-150zM471 944l8 -14q84 67 142.5 151.5t58.5 173.5q0 65 -41 112.5t-102 47.5q-75 0 -120.5 -51t-45.5 -129q0 -48 17.5 -105
t34 -91.5t48.5 -94.5z" />
    <glyph glyph-name="quotesingle" unicode="'" horiz-adv-x="458" 
d="M168 1081l-16 463h153l-16 -463h-121z" />
    <glyph glyph-name="parenleft" unicode="(" horiz-adv-x="614" 
d="M551 -137l-102 -43q-126 204 -191 426.5t-59 445.5q-6 222 59.5 445t190.5 428l102 -43q-119 -193 -181.5 -406t-56.5 -424q-6 -213 56 -424.5t182 -404.5z" />
    <glyph glyph-name="parenright" unicode=")" horiz-adv-x="614" 
d="M166 -180l-103 43q120 193 182 404.5t56 424.5q6 211 -56.5 424t-181.5 406l103 43q125 -205 190.5 -428t59.5 -445q6 -223 -59 -445.5t-191 -426.5z" />
    <glyph glyph-name="asterisk" unicode="*" horiz-adv-x="849" 
d="M383 1235v309h82v-309l295 96l26 -78l-294 -96l182 -250l-68 -49l-182 250l-180 -250l-68 49l182 250l-295 96l27 78z" />
    <glyph glyph-name="plus" unicode="+" horiz-adv-x="909" 
d="M403 473h-360v105h360v448h105v-448h360v-105h-360v-450h-105v450z" />
    <glyph glyph-name="comma" unicode="," horiz-adv-x="425" 
d="M344 127l-205 -457l-98 47l158 476z" />
    <glyph glyph-name="hyphen" unicode="-" horiz-adv-x="319" 
d="M0 573v162h319v-162h-319z" />
    <glyph glyph-name="hyphen" unicode="&#xad;" horiz-adv-x="319" 
d="M0 573v162h319v-162h-319z" />
    <glyph glyph-name="period" unicode="." horiz-adv-x="425" 
d="M213 193q43 0 73.5 -31t30.5 -74t-30.5 -73.5t-73.5 -30.5t-73.5 30.5t-30.5 73.5t30.5 74t73.5 31z" />
    <glyph glyph-name="slash" unicode="/" horiz-adv-x="950" 
d="M989 1638l-901 -2080h-125l903 2080h123z" />
    <glyph glyph-name="zero" unicode="0" 
d="M426 1565q55 0 100.5 -18t78.5 -46.5t59.5 -74.5t44 -91t30 -108t18.5 -114t10 -119.5t4.5 -113.5t0.5 -108t-0.5 -108t-4.5 -113.5t-10 -119t-18.5 -113.5t-30 -108t-44 -91t-59.5 -74.5t-78.5 -46.5t-100.5 -18t-100.5 18t-78.5 46.5t-59.5 74.5t-44 91t-30 108
t-18.5 113.5t-10 119t-4.5 113.5t-0.5 108t0.5 108t4.5 113.5t10 119.5t18.5 114t30 108t44 91t59.5 74.5t78.5 46.5t100.5 18zM426 1434q-32 0 -59.5 -14t-47 -36.5t-35.5 -59.5t-26.5 -73.5t-18 -88t-11.5 -94.5t-6 -101t-2.5 -98.5t-0.5 -96.5t0.5 -96.5t2.5 -98.5
t6 -101t11.5 -94t18 -87.5t26.5 -73.5t35.5 -59.5t47 -36.5t59.5 -14t59.5 14t47 36.5t35.5 59.5t26.5 73.5t18 87.5t11.5 94t6 101t2.5 98.5t0.5 96.5t-0.5 96.5t-2.5 98.5t-6 101t-11.5 94.5t-18 88t-26.5 73.5t-35.5 59.5t-47 36.5t-59.5 14z" />
    <glyph glyph-name="one" unicode="1" 
d="M518 1544v-1544h-139v1409h-203l31 135h311z" />
    <glyph glyph-name="two" unicode="2" 
d="M719 127v-127h-633l307 631q7 14 37.5 75.5t41.5 85.5t36.5 80t37 90.5t26 83t20.5 91.5t6 84q0 91 -40.5 152t-129.5 61q-178 0 -178 -279v-33h-139q0 70 6.5 128t27 118.5t53.5 102t89.5 68t132.5 26.5q156 0 236.5 -98t80.5 -257q0 -74 -16.5 -152t-49.5 -160.5
t-61 -142t-73 -146.5q-5 -9 -8.5 -15.5t-6.5 -13.5l-223 -453h420z" />
    <glyph glyph-name="three" unicode="3" 
d="M313 780h-41v131h25q165 0 224 59t59 230q0 234 -164 234q-42 0 -72.5 -15.5t-47 -38t-26 -58.5t-12 -66.5t-2.5 -71.5h-139q-2 57 7 110.5t31 103t55.5 86.5t84.5 59t113 22q158 0 234.5 -96.5t76.5 -256.5q0 -282 -176 -358q196 -75 196 -434q0 -440 -313 -440
q-171 0 -249.5 100.5t-78.5 275.5l2 68h138v-45q1 -43 5 -77.5t16 -71.5t31.5 -62t53 -41t78.5 -16q40 0 71 15.5t50 44.5t31 60t17.5 73t7 72t1.5 68q0 167 -64 253t-223 83z" />
    <glyph glyph-name="four" unicode="4" 
d="M635 1544v-1005h115v-123h-115v-416h-139v416h-410v145l414 983h135zM496 539v469l20 309h-6l-289 -778h275z" />
    <glyph glyph-name="five" unicode="5" 
d="M692 1544v-127h-344l-57 -479l92 8q93 0 164 -43.5t111 -116t59.5 -154t19.5 -169.5q0 -70 -11.5 -136.5t-38.5 -130.5t-67.5 -111t-102.5 -76t-138 -29q-152 0 -266 88l39 141q121 -90 223 -90q50 0 90.5 23.5t64.5 59.5t40 83.5t22 91.5t6 88q0 66 -12.5 123.5
t-40.5 108.5t-80 80.5t-123 29.5q-103 0 -205 -62l96 799h459z" />
    <glyph glyph-name="six" unicode="6" 
d="M612 1544l-303 -719l4 -4q72 56 154 56q64 0 114.5 -31.5t80 -79.5t48.5 -111.5t26 -120.5t7 -114q0 -68 -7 -126t-28 -117.5t-53.5 -101.5t-88 -68.5t-128.5 -26.5q-76 0 -135 26t-95.5 68.5t-60 102t-32.5 120.5t-9 131q0 257 134 580l223 536h149zM246 434
q0 -33 2.5 -65t9.5 -70.5t21 -70.5t34 -59t51.5 -42.5t71.5 -15.5q39 0 69 16t47.5 46t29 60.5t16 73.5t5.5 69.5t1 63.5q0 41 -3.5 78.5t-14.5 82t-30 76.5t-53 53.5t-79 21.5q-54 0 -92 -32t-55.5 -84.5t-24 -101t-6.5 -100.5z" />
    <glyph glyph-name="seven" unicode="7" 
d="M117 1544h635l-476 -1544h-151l436 1417h-444v127z" />
    <glyph glyph-name="eight" unicode="8" 
d="M424 111q186 0 186 342q0 43 -3 82t-14.5 88t-30 84t-53.5 59.5t-81 24.5q-48 0 -84 -25.5t-55 -62t-31 -87.5t-15 -91.5t-3 -84.5q0 -43 3.5 -82t15 -86.5t30.5 -81t54 -56.5t81 -23zM575 854q54 -28 91 -74.5t54 -106.5t23.5 -114.5t6.5 -120.5q0 -70 -9 -132
t-32.5 -123.5t-59.5 -105t-95 -70.5t-134 -27q-86 0 -150.5 37.5t-100 101.5t-52.5 136.5t-17 154.5q0 368 195 444q-160 94 -160 334q0 75 17.5 141t53 119.5t96.5 85t140 31.5q76 0 134.5 -31t92.5 -84t51 -116.5t17 -135.5q0 -120 -35 -204.5t-127 -139.5zM436 922
q39 0 69 17t47.5 42.5t28 61t14 67.5t3.5 68q0 46 -7 86.5t-23.5 81.5t-51.5 64.5t-84 23.5q-47 0 -79.5 -22t-49 -59.5t-23 -75.5t-6.5 -81q0 -274 162 -274z" />
    <glyph glyph-name="nine" unicode="9" 
d="M238 0l301 719l-4 4q-68 -53 -152 -53q-61 0 -109 25.5t-77 69t-48.5 91t-28 103.5t-11.5 93.5t-3 73.5q0 225 83.5 332t222.5 107q76 0 135 -26t95 -68.5t59.5 -102.5t32.5 -121t9 -131q0 -250 -133 -579l-223 -537h-149zM414 1434q-39 0 -69 -15.5t-47.5 -45t-29 -59.5
t-16 -73t-5.5 -70t-1 -65q0 -41 3.5 -78.5t14.5 -82t30 -76t53 -53t79 -21.5q44 0 77.5 22t52 55t30 78t15 82.5t3.5 77.5q0 41 -4 79.5t-16 84.5t-32 80t-55.5 57t-82.5 23z" />
    <glyph glyph-name="colon" unicode=":" horiz-adv-x="425" 
d="M213 1067q43 0 73.5 -30.5t30.5 -73.5t-30.5 -74t-73.5 -31t-73.5 31t-30.5 74t30.5 73.5t73.5 30.5zM213 193q43 0 73.5 -31t30.5 -74t-30.5 -73.5t-73.5 -30.5t-73.5 30.5t-30.5 73.5t30.5 74t73.5 31z" />
    <glyph glyph-name="semicolon" unicode=";" horiz-adv-x="425" 
d="M322 127l-205 -457l-99 47l158 476zM215 1067q43 0 73.5 -30.5t30.5 -73.5t-30.5 -74t-73.5 -31t-73.5 31t-30.5 74t30.5 73.5t73.5 30.5z" />
    <glyph glyph-name="less" unicode="&#x3c;" horiz-adv-x="909" 
d="M43 479v90l825 480v-115l-714 -399v-11l714 -411v-115z" />
    <glyph glyph-name="equal" unicode="=" horiz-adv-x="909" 
d="M868 760v-105h-825v105h825zM868 395v-104h-825v104h825z" />
    <glyph glyph-name="greater" unicode="&#x3e;" horiz-adv-x="909" 
d="M868 567v-90l-825 -479v115l715 399v10l-715 412v115z" />
    <glyph glyph-name="question" unicode="?" horiz-adv-x="892" 
d="M307 387v498h45q52 0 82 2.5t58 14.5t40.5 30t23 55.5t13 85.5t2.5 125q0 38 -1 60.5t-4 55t-11 51.5t-21 38t-34.5 28t-50.5 9q-35 0 -60.5 -16t-38.5 -38.5t-20.5 -57t-9 -60t-1.5 -60.5v-55h-133v55q0 67 5 114.5t21.5 96.5t45 78.5t78.5 48.5t119 19
q77 0 129.5 -27.5t78.5 -79t36 -107.5t10 -130q0 -57 -0.5 -89t-6 -88t-15 -89t-29 -74.5t-47.5 -64.5t-71.5 -39.5t-99.5 -16.5v-373h-133zM274 88q0 43 31 74t74 31t73.5 -31t30.5 -74t-30.5 -73.5t-73.5 -30.5t-74 30.5t-31 73.5z" />
    <glyph glyph-name="at" unicode="@" horiz-adv-x="1638" 
d="M885 1149q-82 0 -159 -53t-129.5 -131t-84 -167t-31.5 -163q0 -108 59 -172t142 -64q96 0 167.5 52t98.5 118l111 322q33 98 -18 178t-156 80zM1130 1106l31 100h115l-217 -633q-29 -81 -28 -112q1 -64 87 -64q87 0 175.5 87t143 210.5t54.5 229.5q0 120 -53.5 222
t-142.5 168.5t-202.5 104t-234.5 37.5q-144 0 -276 -57t-226 -151t-150 -221t-56 -263q-6 -135 49 -260t151.5 -216t231 -145.5t280.5 -54.5q167 0 328 77t264 206h111q-101 -180 -294 -285.5t-409 -105.5q-182 0 -338.5 63t-264 170.5t-166 254.5t-52.5 312q0 213 111 394
t300.5 286t411.5 105q145 0 279 -49.5t234.5 -135t161 -210.5t60.5 -267q0 -73 -23.5 -155.5t-68.5 -161t-105 -142t-140 -102.5t-166 -39q-64 0 -112.5 28t-51.5 81q-114 -109 -281 -109q-133 0 -207.5 90t-74.5 228q0 85 23 173t68.5 169t107 144.5t144.5 101.5t175 38
q80 0 146 -36.5t97 -104.5z" />
    <glyph glyph-name="A" unicode="A" horiz-adv-x="747" 
d="M438 1544l310 -1544h-154l-57 317h-328l-55 -317h-154l303 1544h135zM233 442h281l-102 592q-8 44 -39 316h-8q-4 -31 -18 -143.5t-23 -172.5z" />
    <glyph glyph-name="B" unicode="B" horiz-adv-x="815" 
d="M123 1544h201q43 0 74.5 -2t68.5 -7.5t63.5 -17.5t54.5 -30.5t46 -47t33.5 -67.5t22.5 -92t7 -119q0 -63 -7 -110.5t-25 -95.5t-55 -87t-93 -69q54 -17 93 -45.5t63 -62t37.5 -78.5t18.5 -89t5 -100q0 -240 -93.5 -332t-328.5 -92h-186v1544zM305 1421h-39v-559h39h20
h37.5t35 2.5t35 7t30.5 14.5t28 24t22.5 36t18.5 50.5t10.5 67.5t4.5 87q0 62 -4.5 105t-17.5 73.5t-29.5 48t-46.5 27.5t-62 13t-82 3zM309 739h-43v-616h39q161 0 220 62.5t59 228.5q0 127 -32 199.5t-89.5 99t-153.5 26.5z" />
    <glyph glyph-name="C" unicode="C" horiz-adv-x="751" 
d="M690 188v-145q-90 -63 -196 -63q-75 0 -137 27.5t-104 72t-74.5 108t-51 128t-30 140t-15.5 137t-4 124.5q0 73 1.5 127t10 149t24.5 164.5t48 151t76 133.5t113.5 87.5t156.5 35.5q116 0 182 -49v-158q-49 34 -89.5 50.5t-90.5 16.5q-52 0 -94.5 -21.5t-71.5 -56.5
t-51 -87.5t-34.5 -107t-20.5 -122.5t-10.5 -127t-2.5 -127q0 -43 0.5 -71t3 -84t7 -96t14 -96t23 -96t34.5 -83t47.5 -69.5t64 -44t81.5 -17.5q93 0 190 69z" />
    <glyph glyph-name="D" unicode="D" horiz-adv-x="843" 
d="M123 0v1544h156q57 0 95 -2t85 -10.5t78 -24t66 -43.5t57.5 -67.5t44.5 -97.5t34 -133t19.5 -174t7.5 -220q0 -156 -9 -267.5t-31 -200.5t-56 -145t-89 -92.5t-125 -51.5t-167 -15h-166zM266 1413v-1282h41q69 0 119 15.5t84.5 52.5t55.5 84t32.5 125.5t15.5 160.5t4 203
q0 138 -5 232t-19.5 169t-36.5 118.5t-60.5 72.5t-86.5 39t-119 10h-25z" />
    <glyph glyph-name="E" unicode="E" horiz-adv-x="692" 
d="M608 1544v-131h-342v-545h332v-131h-332v-606h342v-131h-485v1544h485z" />
    <glyph glyph-name="F" unicode="F" horiz-adv-x="702" 
d="M616 1544v-131h-350v-545h332v-131h-332v-737h-143v1544h493z" />
    <glyph glyph-name="G" unicode="G" horiz-adv-x="843" 
d="M414 684v131h352v-285q0 -64 -1.5 -108t-8.5 -106.5t-20 -105t-37.5 -89.5t-59 -75.5t-87 -47t-118.5 -18.5q-69 0 -122.5 21.5t-91 57t-63.5 95.5t-41.5 123t-24 155.5t-11 176t-2.5 200.5q0 86 3 157.5t13 151.5t26.5 142.5t45 121.5t66.5 97.5t93.5 62t123.5 23.5
q247 0 315 -291l-141 -55q-36 206 -168 206q-44 0 -79.5 -20.5t-59.5 -52t-41 -81t-26.5 -98.5t-15 -114.5t-7 -118t-1.5 -119.5q0 -281 25 -436t71 -210.5t125 -55.5q41 0 69.5 9.5t48.5 34.5t31.5 55.5t17.5 86.5t8 113t2 149v117h-209z" />
    <glyph glyph-name="H" unicode="H" horiz-adv-x="886" 
d="M764 1544v-1544h-143v797h-355v-797h-143v1544h143v-616h355v616h143z" />
    <glyph glyph-name="I" unicode="I" horiz-adv-x="389" 
d="M266 1544v-1544h-143v1544h143z" />
    <glyph glyph-name="J" unicode="J" horiz-adv-x="536" 
d="M414 1544v-1255q0 -48 -1.5 -78.5t-6 -66.5t-13.5 -58t-25 -44.5t-39.5 -34.5t-57.5 -19.5t-78 -7.5q-91 0 -168 38v150q75 -68 141 -68q27 0 46 9t30 23.5t17.5 36.5t8.5 43.5t2 49.5v1282h144z" />
    <glyph glyph-name="K" unicode="K" horiz-adv-x="755" 
d="M737 1544l-346 -735l348 -809h-161l-308 778h-4v-778h-143v1544h143v-700h4l308 700h159z" />
    <glyph glyph-name="L" unicode="L" horiz-adv-x="602" 
d="M266 1544v-1413h336v-131h-479v1544h143z" />
    <glyph glyph-name="M" unicode="M" horiz-adv-x="1150" 
d="M915 1544l189 -1544h-141l-109 1139q-4 51 -8 145h-8q-1 -12 -12.5 -128t-22.5 -177l-168 -979h-117l-170 1139q-1 6 -18 145h-6q-1 -26 -2.5 -94t-4.5 -116.5t-8 -92.5l-123 -981h-139l217 1544h123l174 -1151q4 -26 19 -153h6q3 30 8.5 84t10.5 98.5t11 83.5l177 1038
h122z" />
    <glyph glyph-name="N" unicode="N" horiz-adv-x="890" 
d="M766 1544v-1544h-125l-348 1038q-14 37 -32 113t-21 86h-9q2 -31 7 -93.5t7.5 -111.5t2.5 -94v-938h-125v1544h125l354 -1073q21 -63 47 -160h6q-1 17 -7.5 91t-6.5 114v1028h125z" />
    <glyph glyph-name="O" unicode="O" horiz-adv-x="913" 
d="M457 1565q72 0 130.5 -27t97 -70t67.5 -109t44.5 -131.5t25 -150.5t12 -153t2.5 -152q0 -57 -1 -104t-5.5 -112t-12 -118t-21.5 -114.5t-33.5 -109t-48.5 -93t-65 -75.5t-85 -48t-107 -18q-70 0 -127 25.5t-96 67.5t-68 106t-45.5 129.5t-26.5 149.5t-13 156t-3 158
q0 91 3.5 167.5t14 160t28 149.5t46.5 126.5t68 101t94.5 64.5t124.5 24zM457 1425q-40 2 -73 -13t-56.5 -47t-41 -69.5t-28.5 -92t-18 -102t-10 -112t-4 -110.5t-1 -107q0 -71 1 -123t6.5 -124.5t14.5 -124.5t26 -108.5t41 -91.5t60.5 -58t82.5 -23t82.5 23t60 58t41 91.5
t26.5 108.5t14 125t6 124.5t1 122.5t-1 122.5t-6 124.5t-14 125t-26.5 108.5t-41 91.5t-60 58t-82.5 23z" />
    <glyph glyph-name="P" unicode="P" horiz-adv-x="733" 
d="M266 0h-143v1544h160q56 0 93.5 -2t85 -11t79 -25t64.5 -45.5t52 -71.5t31 -104t12 -142q0 -224 -88.5 -314t-308.5 -90h-37v-739zM266 1413v-543h56q75 0 120 13.5t69 50t32 81.5t10 128q0 159 -53.5 214.5t-204.5 55.5h-29z" />
    <glyph glyph-name="Q" unicode="Q" horiz-adv-x="913" 
d="M555 150l-131 212l113 74l106 -166q45 180 45 490q0 77 -1 131t-6 129t-14 127t-26.5 108.5t-41 90.5t-60 56.5t-82.5 22.5q-83 0 -131.5 -54.5t-74.5 -199t-26 -399.5q0 -195 15.5 -325t47 -201t71.5 -99t98 -28q62 0 98 31zM836 784q0 -452 -105 -651l111 -174
l-111 -74l-94 146q-61 -51 -184 -51q-68 0 -122 21t-102.5 75.5t-80.5 142.5t-51 228t-19 325q0 402 88 597.5t287 195.5q59 0 109.5 -19t87 -49.5t66 -77.5t48.5 -94.5t33 -110t21.5 -114t11.5 -115.5t5 -106.5t1 -94.5z" />
    <glyph glyph-name="R" unicode="R" horiz-adv-x="780" 
d="M266 0h-143v1544h153q55 0 91.5 -2t85.5 -10t80.5 -23.5t65.5 -44.5t53.5 -70t32.5 -102.5t13 -140.5q0 -65 -6 -117t-25 -105t-50 -89t-84 -60t-125 -26l342 -754h-152l-328 756h-4v-756zM266 1413v-541h51q76 0 121.5 13t71 48t33.5 82.5t8 129.5q0 61 -6 104.5
t-20.5 73.5t-32.5 47.5t-50 27t-64.5 12.5t-82.5 3h-29z" />
    <glyph glyph-name="S" unicode="S" horiz-adv-x="796" 
d="M659 1483v-183q-52 60 -105.5 92.5t-121.5 32.5q-103 0 -163 -72.5t-60 -176.5q0 -29 5.5 -57t12 -49.5t22 -46t26 -40t34.5 -37.5t36 -32.5t42 -32.5t41.5 -29.5t44.5 -30.5q50 -35 79 -57.5t68.5 -62t61 -76.5t37.5 -91t16 -116q0 -85 -27 -163.5t-75.5 -140
t-122.5 -98t-162 -36.5q-142 0 -244 77v187q118 -125 250 -125q109 0 172.5 80.5t61.5 191.5q1 60 -15.5 108t-60 93t-69 65.5t-92.5 67.5q-5 4 -8 6.5t-8 5.5t-9 6q-49 33 -79 56.5t-69.5 63t-62 78.5t-38.5 94.5t-16 119.5q0 106 40.5 198t123 152t191.5 60q124 0 243 -82
z" />
    <glyph glyph-name="T" unicode="T" horiz-adv-x="636" 
d="M623 1544v-131h-232v-1413h-143v1413h-232v131h607z" />
    <glyph glyph-name="U" unicode="U" horiz-adv-x="880" 
d="M764 1544v-1055q0 -70 -2 -119t-9.5 -106t-21 -95.5t-37.5 -77t-58 -61t-83.5 -36.5t-112.5 -14q-51 0 -92.5 9t-73 23t-55.5 39t-40.5 50t-28.5 63t-18 70t-9.5 80t-4.5 84.5t-1 90.5v1055h143v-1046q0 -72 2 -118t8 -93.5t18 -75t31.5 -50.5t49.5 -32.5t71 -9.5
q49 0 82 16t52.5 42.5t30 77.5t13.5 104t3 139v1046h143z" />
    <glyph glyph-name="V" unicode="V" horiz-adv-x="796" 
d="M772 1544l-311 -1544h-127l-311 1544h147l203 -1124q4 -17 8 -52t8.5 -84.5t7.5 -72.5h9q16 182 20 209l201 1124h145z" />
    <glyph glyph-name="W" unicode="W" horiz-adv-x="1239" 
d="M1202 1544l-272 -1544h-131l-156 1040q-4 24 -7 66t-6 100t-5 86h-9q-2 -26 -9.5 -124.5t-12.5 -127.5l-180 -1040h-131l-246 1544h147l138 -1032q4 -34 8 -72t8.5 -84.5t7.5 -72.5h8q3 20 12.5 102.5t16.5 126.5l178 1032h123l147 -1032q5 -38 15.5 -114.5t15.5 -114.5
h8q18 174 27 229l160 1032h145z" />
    <glyph glyph-name="X" unicode="X" horiz-adv-x="823" 
d="M778 1544l-289 -760l289 -784h-153l-209 657h-8q-4 -30 -13.5 -66.5t-14.5 -54t-22.5 -68.5t-19.5 -58l-137 -410h-154l293 784l-293 760h154l207 -653h8q19 117 80 287l129 366h153z" />
    <glyph glyph-name="Y" unicode="Y" horiz-adv-x="802" 
d="M764 1544l-283 -868v-676h-143v676l-299 868h154l153 -520q4 -14 25 -90t35 -117h8q35 180 45 215l151 512h154z" />
    <glyph glyph-name="Z" unicode="Z" horiz-adv-x="686" 
d="M647 1544l-432 -1413h389v-131h-565l428 1413h-387v131h567z" />
    <glyph glyph-name="bracketleft" unicode="[" horiz-adv-x="614" 
d="M262 -238v1782h334v-86h-219v-1610h219v-86h-334z" />
    <glyph glyph-name="backslash" unicode="\" horiz-adv-x="454" 
d="M645 -442l-901 2080h123l903 -2080h-125z" />
    <glyph glyph-name="bracketright" unicode="]" horiz-adv-x="614" 
d="M352 1544v-1782h-334v86h220v1610h-220v86h334z" />
    <glyph glyph-name="asciicircum" unicode="^" horiz-adv-x="909" 
d="M412 1544h84l276 -839h-96l-223 686h-4l-218 -686h-96z" />
    <glyph glyph-name="underscore" unicode="_" horiz-adv-x="1024" 
d="M0 -154h1024v-102h-1024v102z" />
    <glyph glyph-name="grave" unicode="`" horiz-adv-x="573" 
d="M203 1536l223 -276l-66 -62l-266 240z" />
    <glyph glyph-name="a" unicode="a" horiz-adv-x="714" 
d="M502 543q0 63 -2 110.5t-7 97.5t-15.5 85t-26.5 64t-40.5 43.5t-56.5 14.5q-35 0 -62 -17t-43.5 -51t-27 -70t-15 -88.5t-6 -91.5t-1.5 -93q0 -106 5 -184.5t16.5 -127t23.5 -78.5t31 -43.5t34.5 -17.5t38.5 -4q94 0 124 96.5t30 354.5zM623 1051v-1051h-134v82h-4
q-65 -98 -174 -98q-67 0 -110.5 22t-76.5 82t-48 169.5t-15 279.5q0 63 1 105t6.5 102.5t16 101t29.5 86t46.5 72.5t69 45t94.5 18q98 0 161 -88h4v72h134z" />
    <glyph glyph-name="b" unicode="b" horiz-adv-x="714" 
d="M367 92q56 0 87.5 39t46.5 137.5t15 278.5q0 99 -6 167t-22 127t-48 88t-80 29q-36 0 -63.5 -20.5t-42 -53t-25 -74t-12.5 -84t-4 -81.5t0 -68v-22v-31q-1 -27 0 -60t1.5 -68.5t5 -72t11 -70t18.5 -63t27.5 -51.5t38.5 -34.5t52 -12.5zM92 0v1638h133v-659h4
q58 88 164 88q51 0 91 -17.5t67 -45t46.5 -71.5t30 -86.5t16.5 -101t7.5 -103.5t1.5 -105q0 -65 -1.5 -115t-8 -110.5t-17 -104.5t-29 -88.5t-44.5 -72t-64 -45t-86 -17.5q-109 0 -174 98h-4v-82h-133z" />
    <glyph glyph-name="c" unicode="c" horiz-adv-x="569" 
d="M514 1026v-154q-66 70 -127 70q-49 0 -85.5 -33t-55.5 -79t-30 -109t-14 -108t-3 -91q0 -52 6.5 -110.5t23.5 -132.5t56 -122t94 -48q69 0 131 94h4v-166q-29 -24 -71 -38.5t-81 -14.5q-69 0 -124 37.5t-87 93.5t-53.5 129t-29 136.5t-7.5 123.5q0 47 3 94t11.5 104.5
t22.5 107t38 98t55.5 83t77 55.5t100.5 21q80 0 145 -41z" />
    <glyph glyph-name="d" unicode="d" horiz-adv-x="714" 
d="M502 543q0 98 -6 167.5t-21.5 128.5t-45.5 89t-75 30q-36 0 -63.5 -19t-43.5 -55.5t-26.5 -73.5t-15 -90.5t-5.5 -88.5t-1 -84q0 -6 -0.5 -40.5t0 -57t1.5 -63.5t5 -70t10.5 -66t18 -62.5t27 -49t38 -35t49.5 -11.5q35 0 60.5 13.5t42 43t27 64.5t16 91t7 108.5
t1.5 130.5zM489 0v82h-4q-65 -98 -174 -98q-53 0 -94.5 20.5t-68 60t-44.5 87.5t-27 114.5t-12.5 129t-3.5 141.5t3.5 139.5t13 124.5t28 109t46.5 82.5t71.5 56t100.5 18.5q98 0 161 -88h4v659h134v-1638h-134z" />
    <glyph glyph-name="e" unicode="e" horiz-adv-x="702" 
d="M201 610h305l-2 19q-1 27 -1.5 34t-2 36.5t-4 42t-6.5 40.5t-9.5 42t-13.5 36t-18.5 34t-24 24.5t-31 18t-37.5 5.5q-44 0 -77 -37.5t-48.5 -94.5t-22.5 -107t-7 -93zM641 498h-442v-31q0 -50 5.5 -101.5t21 -114.5t50.5 -102.5t86 -39.5q33 0 58.5 18t39.5 44.5t22.5 62
t11 64t2.5 58.5h137q-1 -65 -14.5 -126.5t-41.5 -118.5t-80.5 -92t-121.5 -35q-57 0 -104 19t-79 50.5t-56.5 76.5t-38 91.5t-22 102t-11.5 102t-3 96.5q0 45 3 90t11.5 100t21.5 103.5t36 96t53 81t73.5 54t96.5 20.5q51 0 93 -18.5t71 -49t51.5 -74t35 -88t21 -96t11 -94
t2.5 -86.5v-63z" />
    <glyph glyph-name="f" unicode="f" horiz-adv-x="425" 
d="M420 1051v-123h-174v-928h-133v928h-113v123h113v309q0 143 44.5 219t151.5 76q64 0 117 -23v-145q-19 15 -30 22.5t-29.5 15t-36.5 7.5q-36 0 -55 -22t-24 -55t-5 -91v-313h174z" />
    <glyph glyph-name="g" unicode="g" horiz-adv-x="724" 
d="M199 508q0 -34 0.5 -51t2 -59t6 -68t11.5 -64t19.5 -62t29.5 -48t42 -35.5t55 -11.5t52.5 13t38 32.5t26.5 54.5t16.5 67.5t9 83t4 88.5t0.5 97q0 68 -2.5 118t-11.5 109.5t-25.5 97t-46.5 63t-72 25.5q-39 0 -65 -16.5t-48 -63.5t-32 -138t-10 -232zM633 1051v-1090
q0 -51 -1 -83.5t-7 -77t-16.5 -72t-30.5 -58.5t-49 -48t-72 -28.5t-99 -11.5q-135 0 -202.5 76.5t-67.5 214.5v39h131v-18q0 -187 141 -187q29 0 51.5 6.5t37 18.5t25 28t15 35.5t7 41.5t2.5 44.5v46.5v23v123q-65 -74 -170 -74q-54 0 -97 21.5t-70.5 53.5t-47.5 83.5
t-29.5 95.5t-15 106t-6.5 99t-1 90q0 518 265 518q108 0 170 -88h4v72h133z" />
    <glyph glyph-name="h" unicode="h" horiz-adv-x="727" 
d="M225 1638v-671q87 100 207 100q40 0 72 -10t53 -26t36 -42t23 -50.5t12.5 -60t5.5 -62t1 -64.5v-752h-133v729q0 129 -23.5 179t-95.5 50q-44 0 -75 -19t-46.5 -45t-24.5 -68t-10.5 -71.5t-1.5 -72.5v-682h-133v1638h133z" />
    <glyph glyph-name="i" unicode="i" horiz-adv-x="317" 
d="M225 1051v-1051h-133v1051h133zM258 1362q0 -41 -29 -70.5t-69 -29.5q-41 0 -71 29.5t-30 70.5q0 40 30 69t71 29q40 0 69 -29t29 -69z" />
    <glyph glyph-name="j" unicode="j" horiz-adv-x="317" 
d="M225 1051v-1438h-133v1438h133zM258 1362q0 -41 -29 -70.5t-69 -29.5q-41 0 -71 29.5t-30 70.5q0 40 30 69t71 29q40 0 69 -29t29 -69z" />
    <glyph glyph-name="k" unicode="k" horiz-adv-x="718" 
d="M225 1638v-1013h4l256 426h152l-313 -471l395 -580h-166l-324 504h-4v-504h-133v1638h133z" />
    <glyph glyph-name="l" unicode="l" horiz-adv-x="317" 
d="M225 1638v-1638h-133v1638h133z" />
    <glyph glyph-name="m" unicode="m" horiz-adv-x="1144" 
d="M225 1051v-88h4q37 47 89 75.5t110 28.5q65 0 117 -33t78 -92q88 125 217 125q48 0 84 -11.5t59 -35t37.5 -50t21.5 -65.5t9 -71.5t2 -77.5v-756h-133v752q0 35 -2 60.5t-9 55t-19 47.5t-35 30.5t-54 12.5q-33 0 -58.5 -11t-42.5 -27t-29 -43t-18 -51t-9.5 -60t-4 -59.5
t-0.5 -59.5v-647h-133v750q0 36 -1.5 60t-8 54.5t-18 49t-34 31.5t-53.5 13q-39 0 -68.5 -14.5t-47 -43.5t-28.5 -58t-15.5 -73t-5.5 -72.5t-1 -71.5v-625h-133v1051h133z" />
    <glyph glyph-name="n" unicode="n" horiz-adv-x="727" 
d="M225 1051v-84q87 100 207 100q54 0 92.5 -20t59.5 -49t33 -74.5t15 -83t3 -88.5v-752h-133v737q0 44 -1.5 72t-8.5 59t-19.5 49t-35 29.5t-54.5 11.5q-44 0 -75 -19t-46.5 -45t-24.5 -68t-10.5 -71.5t-1.5 -72.5v-682h-133v1051h133z" />
    <glyph glyph-name="o" unicode="o" horiz-adv-x="727" 
d="M362 1067q302 0 302 -541q0 -542 -302 -542q-301 0 -301 542q0 541 301 541zM362 942q-163 0 -163 -416q0 -417 163 -417q164 0 164 417q0 36 -1 66.5t-5.5 84.5t-15.5 95.5t-28 82.5t-46.5 64t-67.5 23z" />
    <glyph glyph-name="p" unicode="p" horiz-adv-x="714" 
d="M367 92q89 0 119 96.5t30 348.5q0 46 -0.5 75t-3.5 78.5t-9 81.5t-17.5 70.5t-27.5 61.5t-41 38.5t-57 15.5q-29 0 -52.5 -13t-38.5 -33.5t-26 -54.5t-16.5 -65t-9 -76.5t-4 -79t-0.5 -81.5q0 -61 1.5 -106t6 -103.5t15 -99t27 -78.5t43 -57t61.5 -19zM225 1051v-72h4
q63 88 164 88q51 0 91.5 -19t67 -48.5t46 -75t30 -89t16.5 -101t7.5 -100.5t1.5 -97q0 -65 -1 -107t-6 -106t-14.5 -106t-28 -90.5t-44.5 -77t-65.5 -47.5t-90.5 -19q-109 0 -174 98h-4v-483h-133v1452h133z" />
    <glyph glyph-name="q" unicode="q" horiz-adv-x="714" 
d="M348 92q34 0 59.5 14t42 44t27.5 66t16 91.5t7 108t2 127.5q0 96 -6.5 166.5t-22 129.5t-45.5 89t-74 30q-61 0 -96 -51.5t-47 -137t-12 -222.5q0 -60 1 -102t4.5 -93t9.5 -86t17 -70.5t26.5 -56.5t38.5 -34t52 -13zM623 1051v-1452h-134v483h-4q-65 -98 -174 -98
q-50 0 -89.5 19t-65 48.5t-44.5 77t-28.5 91t-15 105.5t-6.5 106t-1 106q0 70 2.5 122.5t11 119t26.5 113.5t46 89t73 64t104 22q98 0 161 -88h4v72h134z" />
    <glyph glyph-name="r" unicode="r" horiz-adv-x="419" 
d="M225 1051v-140h4q26 66 70 111.5t104 44.5v-156l-26 2q-49 0 -81 -22t-46.5 -67t-19.5 -92.5t-5 -119.5v-612h-133v1051h133z" />
    <glyph glyph-name="s" unicode="s" horiz-adv-x="569" 
d="M494 999v-163h-5q-75 106 -174 106q-59 0 -95 -39.5t-36 -99.5q0 -16 2.5 -31.5t10 -31t12.5 -26t19 -26.5t20 -23.5t25.5 -25t24.5 -22t28.5 -24t27.5 -22.5q40 -33 64 -57t52 -60t41 -78t13 -91q0 -129 -79 -215t-207 -86q-48 0 -100 19.5t-91 51.5v156
q47 -49 89.5 -75.5t96.5 -26.5q68 0 111 46t43 113q0 30 -11 60t-22.5 49.5t-41.5 51t-43 43t-52 46.5q-39 34 -63 59t-52 61t-41.5 76t-13.5 85q0 119 72 193.5t190 74.5q97 0 185 -68z" />
    <glyph glyph-name="t" unicode="t" horiz-adv-x="430" 
d="M455 1051v-123h-174v-928h-134v928h-112v123h112v286h134v-286h174z" />
    <glyph glyph-name="u" unicode="u" horiz-adv-x="716" 
d="M84 1051h133v-660q0 -42 1.5 -71t5.5 -65t13.5 -59.5t24 -44.5t38.5 -31.5t56 -10.5q33 0 57.5 10t39.5 32t24.5 44.5t14 59.5t6 64.5t2.5 71.5v660h133v-772q0 -137 -69 -216t-206 -79q-136 0 -205 78.5t-69 216.5v772z" />
    <glyph glyph-name="v" unicode="v" horiz-adv-x="647" 
d="M633 1051l-234 -1051h-143l-240 1051h136l135 -658q7 -33 19.5 -98t19.5 -98h8q16 135 28 196l134 658h137z" />
    <glyph glyph-name="w" unicode="w" horiz-adv-x="1032" 
d="M1010 1051l-232 -1051h-137l-121 762q-3 21 -6 60.5t-4 51.5h-6q-14 -144 -21 -190l-112 -684h-135l-213 1051h135l100 -621q7 -46 23 -129.5t20 -107.5h8q23 182 31 237l102 621h136l110 -727q3 -21 9.5 -65.5t9.5 -65.5h6q3 23 8.5 64.5t10.5 75.5t11 64l131 654h136z
" />
    <glyph glyph-name="x" unicode="x" horiz-adv-x="686" 
d="M655 1051l-235 -514l235 -537h-147l-109 276q-44 108 -55 177h-8q-10 -78 -51 -179l-105 -274h-149l241 537l-217 514h148l86 -234q44 -123 61 -213h8q40 164 62 219l88 228h147z" />
    <glyph glyph-name="y" unicode="y" horiz-adv-x="679" 
d="M664 1051l-363 -1452h-139l104 430l-250 1022h136l176 -848h6q45 225 55 270l135 578h140z" />
    <glyph glyph-name="z" unicode="z" horiz-adv-x="677" 
d="M578 123v-123h-547l415 928h-358v123h559l-426 -928h357z" />
    <glyph glyph-name="braceleft" unicode="{" horiz-adv-x="614" 
d="M567 -162h-45q-144 0 -200 66t-56 231v303q0 46 -1.5 67t-15 52t-42.5 53q-39 31 -109 47v68q70 16 109 47q29 22 42.5 53t15 52t1.5 67v303q0 165 56 231t200 66h45v-67q-59 -4 -96 -19t-56.5 -44t-26.5 -65t-7 -92v-288q0 -113 -32.5 -177.5t-129.5 -97.5v-6
q97 -33 129.5 -97t32.5 -177v-289q0 -56 7 -92t26.5 -64.5t56.5 -43.5t96 -19v-68z" />
    <glyph glyph-name="bar" unicode="|" horiz-adv-x="454" 
d="M174 1610h105v-2048h-105v2048z" />
    <glyph glyph-name="braceright" unicode="}" horiz-adv-x="614" 
d="M352 438v-303q0 -165 -56 -231t-200 -66h-45v-4h-4l4 4v68q113 9 150 58t37 161v289q0 113 32 177t129 97v6q-97 33 -129 97.5t-32 177.5v288q0 112 -37 161.5t-150 58.5v67h45q144 0 200 -66t56 -231v-303q0 -34 1 -50.5t6 -42t18 -44t35 -35.5q39 -31 104 -47v-68
q-65 -16 -104 -47q-22 -17 -35 -35.5t-18 -44t-6 -42t-1 -50.5z" />
    <glyph glyph-name="asciitilde" unicode="~" horiz-adv-x="909" 
d="M111 383l-68 72q49 81 102.5 128.5t130.5 47.5q69 0 193 -53q6 -3 21.5 -9t22 -9t20 -8t20.5 -7.5t18.5 -6.5t19 -6t16.5 -4t16 -3t14 -1q86 0 164 125l67 -69q-102 -166 -231 -166q-21 0 -55 8.5t-55 15.5t-64 23.5t-47 17.5q-3 1 -31 12t-38.5 14.5t-32 8t-38.5 4.5
q-29 0 -53.5 -10.5t-44 -31t-32 -38.5t-29.5 -45q-1 -1 -1.5 -2t-1.5 -2.5t-1.5 -3t-1.5 -2.5z" />
    <glyph glyph-name="exclamdown" unicode="&#xa1;" horiz-adv-x="702" 
d="M420 762v-1157h-137v1157h137zM455 1061q0 -43 -31 -74t-74 -31t-73.5 31t-30.5 74t30.5 73.5t73.5 30.5t74 -30.5t31 -73.5z" />
    <glyph glyph-name="cent" unicode="&#xa2;" 
d="M524 1513v-180q61 -10 103 -37v-153q-65 69 -127 69q-48 0 -84.5 -33t-55 -79t-30 -108.5t-14.5 -107.5t-3 -91q0 -39 3.5 -84t15 -106t30 -109t52.5 -81.5t78 -33.5q69 0 131 94h4v-166q-38 -33 -103 -47v-203h-100v203q-61 19 -107 61t-72.5 93t-43 116.5t-22 123
t-5.5 120.5q0 65 4.5 125.5t20.5 134.5t42 130.5t73 102.5t110 62v184h100z" />
    <glyph glyph-name="sterling" unicode="&#xa3;" 
d="M307 621h-215v96h166q-74 119 -116 226.5t-42 221.5q0 172 95.5 286t261.5 114q137 0 225.5 -102t91.5 -246l-139 -27q-2 104 -50.5 174t-138.5 70q-103 0 -154.5 -75t-51.5 -185q0 -31 5 -63.5t11 -58.5t19.5 -61t22 -55.5t28 -58t28 -53t31.5 -56t29 -51.5h241v-96
h-192q41 -90 41 -170q0 -65 -23.5 -137.5t-62.5 -120.5q15 -9 51 -37.5t67.5 -47.5t57.5 -20q70 2 84 123l121 -37q-6 -90 -61 -153.5t-140 -63.5q-14 0 -28 2t-24.5 4.5t-25 9t-22.5 9.5t-23.5 12.5t-20.5 13t-22.5 15t-21.5 14.5q-6 4 -34 23t-49 29.5t-38 10.5
q-37 0 -63 -29t-38 -69l-118 72q31 69 83.5 116.5t118.5 47.5q8 0 33 -5q60 91 60 187q0 49 -15.5 105t-42.5 96z" />
    <glyph glyph-name="currency" unicode="&#xa4;" 
d="M-27 213l80 78q-88 128 -88 272q0 82 20.5 147.5t67.5 131.5l-80 80l97 96l82 -78q121 90 282 90q138 0 271 -90l79 78l97 -96l-80 -80q88 -126 88 -287q0 -75 -21.5 -136.5t-66.5 -127.5l80 -78l-97 -98l-79 80q-128 -93 -287 -93q-135 0 -266 93l-82 -80zM434 909
q-146 2 -246.5 -97.5t-101.5 -248.5q1 -137 101 -237t237 -103q142 3 241.5 102t102.5 244q-3 137 -101 239t-233 101z" />
    <glyph glyph-name="yen" unicode="&#xa5;" 
d="M782 1544l-190 -586h221v-88h-252l-49 -157h301v-88h-309v-625h-139v625h-328v88h315l-51 157h-264v88h233l-202 586h149l213 -727h4l58 254l141 473h149z" />
    <glyph glyph-name="brokenbar" unicode="&#xa6;" horiz-adv-x="454" 
d="M174 1354h105v-512h-105v512zM174 330h105v-512h-105v512z" />
    <glyph glyph-name="section" unicode="&#xa7;" horiz-adv-x="849" 
d="M625 549q0 242 -150 311l-43 14q-205 -10 -205 -303q0 -206 170 -288l58 -27q50 10 85 37t52.5 69t25 86.5t7.5 100.5zM420 -416q-125 0 -203.5 83t-83.5 208h133q5 -78 44.5 -124t115.5 -46q75 0 120.5 53.5t45.5 130.5q0 101 -57.5 161t-163.5 106
q-150 66 -213.5 166.5t-63.5 244.5q0 69 14.5 129t44 112.5t81 88t120.5 47.5v4l-43 23q-170 87 -170 284q0 133 82 221.5t215 88.5q117 0 198.5 -77t84.5 -192h-133q-8 65 -49 106.5t-107 41.5q-79 0 -123.5 -56.5t-44.5 -136.5q0 -46 15.5 -83t47.5 -67t62 -49.5t78 -45.5
q158 -86 224.5 -182.5t66.5 -245.5q0 -145 -51 -249.5t-152 -138.5v-4q160 -90 160 -297q0 -129 -83.5 -217t-211.5 -88z" />
    <glyph glyph-name="dieresis" unicode="&#xa8;" horiz-adv-x="573" 
d="M49 1358q0 38 28 66t66 28t66.5 -28t28.5 -66t-28.5 -66t-66.5 -28t-66 28t-28 66zM336 1358q0 38 28 66t66 28t66 -28t28 -66t-28 -66t-66 -28t-66 28t-28 66z" />
    <glyph glyph-name="copyright" unicode="&#xa9;" horiz-adv-x="1638" 
d="M821 -20q-152 0 -290 62.5t-238.5 169t-159.5 253.5t-59 309q0 160 59.5 306.5t159.5 252.5t238 169t290 63q202 0 374 -106.5t272 -288.5t100 -396q0 -216 -100 -399t-271.5 -289t-374.5 -106zM821 88q133 0 251 53t202.5 144.5t134 218.5t49.5 270q0 183 -83.5 340
t-230.5 249.5t-323 92.5q-133 0 -252 -54.5t-203.5 -147t-134 -218t-49.5 -262.5q0 -143 49.5 -270t134 -218.5t203 -144.5t252.5 -53zM1079 629h121q-15 -138 -114 -222.5t-232 -84.5q-183 0 -298.5 131t-115.5 327q0 199 111.5 327t298.5 128q136 0 231.5 -80t118.5 -219
h-121q-15 90 -78 140t-149 50q-136 0 -213.5 -99t-77.5 -245q0 -142 81 -247t212 -105q84 0 149.5 55.5t75.5 143.5z" />
    <glyph glyph-name="ordfeminine" unicode="&#xaa;" horiz-adv-x="614" 
d="M489 1554v-682h-98v41h-4q-36 -51 -104 -51q-54 0 -89.5 29t-51.5 84.5t-21.5 110t-5.5 131.5q0 45 1.5 78.5t7 77.5t17.5 75t30 59.5t48 43t70 14.5q63 0 102 -45v34h98zM399 1225v13q2 245 -90 245t-92 -242q0 -161 17.5 -229t70.5 -68q23 0 40 11t27 34t16.5 44
t8.5 54.5t2.5 52t0 50.5t-0.5 35z" />
    <glyph glyph-name="guillemotleft" unicode="&#xab;" horiz-adv-x="770" 
d="M692 1047l-219 -388l219 -397l-90 -51l-250 448l250 437zM432 1047l-219 -388l219 -397l-88 -51l-252 448l252 437z" />
    <glyph glyph-name="logicalnot" unicode="&#xac;" horiz-adv-x="909" 
d="M43 760h825v-547h-104v442h-721v105z" />
    <glyph glyph-name="registered" unicode="&#xae;" horiz-adv-x="1638" 
d="M821 -20q-152 0 -290 62.5t-238.5 169t-159.5 253.5t-59 309q0 160 59.5 306.5t159.5 252.5t238 169t290 63q202 0 374 -106.5t272 -288.5t100 -396q0 -216 -100 -399t-271.5 -289t-374.5 -106zM821 88q133 0 251 53t202.5 144.5t134 218.5t49.5 270q0 183 -83.5 340
t-230.5 249.5t-323 92.5q-133 0 -252 -54.5t-203.5 -147t-134 -218t-49.5 -262.5q0 -143 49.5 -270t134 -218.5t203 -144.5t252.5 -53zM926 731l264 -401h-137l-250 401h-176v-401h-117v887h381q139 0 213 -46q47 -27 72.5 -79t25.5 -111q0 -124 -75.5 -185.5t-200.5 -64.5z
M627 823h153q172 0 236.5 30.5t64.5 129.5q0 45 -19 74.5t-53 43t-67 18.5t-76 5h-239v-301z" />
    <glyph glyph-name="macron" unicode="&#xaf;" horiz-adv-x="573" 
d="M27 1300v109h522v-109h-522z" />
    <glyph glyph-name="macron" unicode="&#x2c9;" horiz-adv-x="573" 
d="M27 1300v109h522v-109h-522z" />
    <glyph glyph-name="degree" unicode="&#xb0;" horiz-adv-x="819" 
d="M410 1565q126 0 216.5 -91t90.5 -217t-90.5 -216.5t-216.5 -90.5t-217 90.5t-91 216.5t91 217t217 91zM410 1483q-92 0 -159 -67t-67 -159t67 -158.5t159 -66.5t158.5 66.5t66.5 158.5t-66.5 159t-158.5 67z" />
    <glyph glyph-name="plusminus" unicode="&#xb1;" horiz-adv-x="909" 
d="M403 575h-360v105h360v346h105v-346h360v-105h-360v-348h-105v348zM868 127v-104h-825v104h825z" />
    <glyph glyph-name="twosuperior" unicode="&#xb2;" horiz-adv-x="512" 
d="M457 627h-412l201 379q38 72 58.5 115t42.5 113t22 126q0 52 -24.5 86.5t-76.5 34.5q-106 0 -106 -162v-19h-101q0 265 201 265q102 0 154.5 -58.5t52.5 -152.5q0 -38 -7 -76t-25 -85t-27.5 -69.5t-38.5 -81t-33 -67.5l-143 -260h262v-88z" />
    <glyph glyph-name="threesuperior" unicode="&#xb3;" horiz-adv-x="512" 
d="M260 614q-111 0 -162 60.5t-51 165.5v41h100v-27q2 -70 25.5 -113t85.5 -43q28 0 48.5 14t31 33t16 48t7 50.5t1.5 49.5q0 99 -39.5 149.5t-136.5 49.5h-26v86h16q101 0 137.5 34t36.5 136q0 133 -96 133q-31 0 -51 -12t-28.5 -35t-11.5 -44.5t-3 -52.5h-101
q-3 93 44.5 160.5t144.5 67.5q103 0 153 -57.5t50 -153.5q0 -167 -115 -215q127 -44 127 -260q0 -265 -203 -265z" />
    <glyph glyph-name="acute" unicode="&#xb4;" horiz-adv-x="573" 
d="M147 1260l224 276l108 -98l-266 -240z" />
    <glyph glyph-name="mu" unicode="&#xb5;" horiz-adv-x="716" 
d="M498 1051h133v-752q0 -38 -1 -64.5t-5.5 -62t-12.5 -60t-23 -50.5t-36 -42t-53 -26t-72 -10q-120 0 -207 100v-485h-133v1452h133v-682q0 -43 1.5 -72.5t10.5 -72t24.5 -68.5t46.5 -45t75 -19q73 0 96 47.5t23 182.5v729z" />
    <glyph glyph-name="mu" unicode="&#x3bc;" horiz-adv-x="716" 
d="M498 1051h133v-752q0 -38 -1 -64.5t-5.5 -62t-12.5 -60t-23 -50.5t-36 -42t-53 -26t-72 -10q-120 0 -207 100v-485h-133v1452h133v-682q0 -43 1.5 -72.5t10.5 -72t24.5 -68.5t46.5 -45t75 -19q73 0 96 47.5t23 182.5v729z" />
    <glyph glyph-name="paragraph" unicode="&#xb6;" horiz-adv-x="849" 
d="M444 -395v1243h-24q-95 0 -169 22t-118.5 56.5t-73 81.5t-39 91.5t-10.5 92.5q0 81 19.5 142t65 110t129.5 74.5t204 25.5h369v-1939h-95v1853h-163v-1853h-95z" />
    <glyph glyph-name="periodcentered" unicode="&#xb7;" horiz-adv-x="425" 
d="M211 621q45 0 75.5 -31t30.5 -74t-30.5 -73.5t-75.5 -30.5q-43 0 -72.5 30.5t-29.5 73.5t30 74t72 31z" />
    <glyph glyph-name="periodcentered" unicode="&#x2219;" horiz-adv-x="425" 
d="M211 621q45 0 75.5 -31t30.5 -74t-30.5 -73.5t-75.5 -30.5q-43 0 -72.5 30.5t-29.5 73.5t30 74t72 31z" />
    <glyph glyph-name="cedilla" unicode="&#xb8;" horiz-adv-x="573" 
d="M395 -143l-194 -310l-84 47l170 322z" />
    <glyph glyph-name="onesuperior" unicode="&#xb9;" horiz-adv-x="512" 
d="M317 1552v-925h-100v841h-129l21 84h208z" />
    <glyph glyph-name="ordmasculine" unicode="&#xba;" horiz-adv-x="614" 
d="M313 862q-52 0 -90.5 24t-60 59.5t-35 85.5t-17.5 92.5t-4 90.5q0 47 4 89.5t17.5 92.5t35 85.5t60 59.5t90.5 24q197 0 197 -351q0 -352 -197 -352zM311 954q30 0 50.5 25.5t30 68.5t13 82.5t3.5 83.5q0 25 -1 49t-6.5 65t-15 70.5t-28.5 52t-46 22.5q-102 0 -102 -259
q0 -260 102 -260z" />
    <glyph glyph-name="guillemotright" unicode="&#xbb;" horiz-adv-x="770" 
d="M78 1047l88 49l252 -437l-252 -448l-88 51l219 397zM338 1047l90 49l250 -437l-250 -448l-90 51l221 397z" />
    <glyph glyph-name="onequarter" unicode="&#xbc;" horiz-adv-x="1273" 
d="M301 1552v-925h-100v841h-129l20 84h209zM1118 926v-598h76v-80h-76v-248h-100v248h-275v88l265 590h110zM1018 328v276q0 30 6.5 100.5t7.5 86.5h-4l-188 -463h178zM993 1544l-667 -1544h-86l669 1544h84z" />
    <glyph glyph-name="onehalf" unicode="&#xbd;" horiz-adv-x="1273" 
d="M317 1552v-925h-100v841h-129l21 84h208zM1194 0h-412l201 379q38 72 58.5 115t42.5 113t22 126q0 53 -24 87t-76 34q-107 0 -107 -162v-18h-100q0 54 8 96t28 82.5t61.5 63t102.5 22.5q102 0 154.5 -58.5t52.5 -152.5q0 -38 -7 -76t-25 -85t-27.5 -69.5t-38.5 -81
t-33 -67.5l-143 -260h262v-88zM973 1544l-668 -1544h-86l670 1544h84z" />
    <glyph glyph-name="threequarters" unicode="&#xbe;" horiz-adv-x="1273" 
d="M1018 328v276q11 135 14 187h-4l-188 -463h178zM301 614q-111 0 -162 60.5t-51 165.5v41h100v-27q2 -70 25.5 -113t85.5 -43q28 0 48.5 14t31 33t16 48t7 50.5t1.5 49.5q0 99 -39.5 149.5t-136.5 49.5h-26v86h16q101 0 137.5 34t36.5 136q0 133 -96 133q-31 0 -51 -12
t-28.5 -35t-11.5 -44.5t-3 -52.5h-101q-3 93 44.5 160.5t144.5 67.5q103 0 153 -57.5t50 -153.5q0 -167 -115 -215q127 -44 127 -260q0 -265 -203 -265zM1075 1544l-667 -1544h-86l669 1544h84zM1118 0h-100v248h-275v88l265 590h110v-598h76v-80h-76v-248z" />
    <glyph glyph-name="questiondown" unicode="&#xbf;" horiz-adv-x="892" 
d="M590 762v-498h-45q-52 0 -82 -2.5t-58 -14.5t-40.5 -30t-23 -55.5t-13 -85.5t-2.5 -125q0 -37 1 -60.5t4.5 -55.5t11.5 -51t21 -38t34.5 -28t50.5 -9q35 0 60.5 16t38.5 38t20 57t8.5 60.5t1.5 60.5v55h133v-55q0 -67 -5 -114.5t-21.5 -96.5t-45 -78.5t-78.5 -48.5
t-119 -19q-77 0 -129.5 27.5t-78.5 79t-36 107.5t-10 130q0 57 0.5 89t6 88t15 89t29 74.5t47.5 64.5t71.5 39.5t99.5 16.5v373h133zM618 1061q0 -43 -30.5 -74t-73.5 -31t-73.5 31t-30.5 74t30.5 73.5t73.5 30.5t73.5 -30.5t30.5 -73.5z" />
    <glyph glyph-name="Agrave" unicode="&#xc0;" horiz-adv-x="747" 
d="M438 1544l310 -1544h-154l-57 317h-328l-55 -317h-154l303 1544h135zM233 442h281l-102 592q-8 44 -39 316h-8q-4 -31 -18 -143.5t-23 -172.5zM291 1968l223 -276l-65 -62l-267 240z" />
    <glyph glyph-name="Aacute" unicode="&#xc1;" horiz-adv-x="747" 
d="M438 1544l310 -1544h-154l-57 317h-328l-55 -317h-154l303 1544h135zM233 442h281l-102 592q-8 44 -39 316h-8q-4 -31 -18 -143.5t-23 -172.5zM236 1692l223 276l108 -98l-266 -240z" />
    <glyph glyph-name="Acircumflex" unicode="&#xc2;" horiz-adv-x="747" 
d="M438 1544l310 -1544h-154l-57 317h-328l-55 -317h-154l303 1544h135zM233 442h281l-102 592q-8 44 -39 316h-8q-4 -31 -18 -143.5t-23 -172.5zM371 1954l260 -250l-76 -74l-184 176l-183 -176l-69 74z" />
    <glyph glyph-name="Atilde" unicode="&#xc3;" horiz-adv-x="747" 
d="M438 1544l310 -1544h-154l-57 317h-328l-55 -317h-154l303 1544h135zM233 442h281l-102 592q-8 44 -39 316h-8q-4 -31 -18 -143.5t-23 -172.5zM227 1706h-118q5 65 49.5 115.5t115.5 50.5q34 0 106 -37t91 -37q25 0 39 20t12 44h121q-4 -58 -46.5 -112t-111.5 -54
q-9 0 -17 1t-18 4t-15.5 4.5t-17.5 7t-15.5 7t-17.5 8t-15 7.5q-68 39 -93 39q-49 0 -49 -68z" />
    <glyph glyph-name="Adieresis" unicode="&#xc4;" horiz-adv-x="747" 
d="M438 1544l310 -1544h-154l-57 317h-328l-55 -317h-154l303 1544h135zM233 442h281l-102 592q-8 44 -39 316h-8q-4 -31 -18 -143.5t-23 -172.5zM137 1790q0 38 28 66t66 28t66.5 -28t28.5 -66t-28.5 -66t-66.5 -28t-66 28t-28 66zM424 1790q0 38 28 66t66 28t66 -28
t28 -66t-28 -66t-66 -28t-66 28t-28 66z" />
    <glyph glyph-name="Aring" unicode="&#xc5;" horiz-adv-x="747" 
d="M438 1544l310 -1544h-154l-57 317h-328l-55 -317h-154l303 1544h135zM233 442h281l-102 592q-8 44 -39 316h-8q-4 -31 -18 -143.5t-23 -172.5zM377 1948q76 0 130 -54t54 -131t-54 -131.5t-130 -54.5q-77 0 -132 55t-55 131t55 130.5t132 54.5zM377 1855q-38 0 -66 -27
t-28 -65t28 -66t66 -28t65 28t27 66t-27 65t-65 27z" />
    <glyph glyph-name="AE" unicode="&#xc6;" horiz-adv-x="1087" 
d="M819 1544l23 -131h-342l102 -545h320l24 -131h-319l114 -606h326l20 -131h-477l-53 317h-350l-53 -317h-154l311 1544h508zM231 442h306l-115 684q-7 39 -27 254h-6q-7 -42 -22.5 -127t-22.5 -127z" />
    <glyph glyph-name="Ccedilla" unicode="&#xc7;" horiz-adv-x="751" 
d="M690 188v-145q-90 -63 -196 -63q-75 0 -137 27.5t-104 72t-74.5 108t-51 128t-30 140t-15.5 137t-4 124.5q0 73 1.5 127t10 149t24.5 164.5t48 151t76 133.5t113.5 87.5t156.5 35.5q116 0 182 -49v-158q-49 34 -89.5 50.5t-90.5 16.5q-52 0 -94.5 -21.5t-71.5 -56.5
t-51 -87.5t-34.5 -107t-20.5 -122.5t-10.5 -127t-2.5 -127q0 -43 0.5 -71t3 -84t7 -96t14 -96t23 -96t34.5 -83t47.5 -69.5t64 -44t81.5 -17.5q93 0 190 69zM526 -143l-194 -310l-84 47l170 322z" />
    <glyph glyph-name="Egrave" unicode="&#xc8;" horiz-adv-x="692" 
d="M608 1544v-131h-342v-545h332v-131h-332v-606h342v-131h-485v1544h485zM262 1968l223 -276l-65 -62l-266 240z" />
    <glyph glyph-name="Eacute" unicode="&#xc9;" horiz-adv-x="692" 
d="M608 1544v-131h-342v-545h332v-131h-332v-606h342v-131h-485v1544h485zM268 1692l224 276l108 -98l-266 -240z" />
    <glyph glyph-name="Ecircumflex" unicode="&#xca;" horiz-adv-x="692" 
d="M608 1544v-131h-342v-545h332v-131h-332v-606h342v-131h-485v1544h485zM342 1954l260 -250l-76 -74l-184 176l-182 -176l-70 74z" />
    <glyph glyph-name="Edieresis" unicode="&#xcb;" horiz-adv-x="692" 
d="M608 1544v-131h-342v-545h332v-131h-332v-606h342v-131h-485v1544h485zM121 1790q0 38 28 66t66 28t66 -28t28 -66t-28 -66t-66 -28t-66 28t-28 66zM408 1790q0 38 28 66t66 28t66 -28t28 -66t-28 -66t-66 -28t-66 28t-28 66z" />
    <glyph glyph-name="Igrave" unicode="&#xcc;" horiz-adv-x="389" 
d="M266 1544v-1544h-143v1544h143zM111 1968l223 -276l-66 -62l-266 240z" />
    <glyph glyph-name="Iacute" unicode="&#xcd;" horiz-adv-x="389" 
d="M266 1544v-1544h-143v1544h143zM55 1692l224 276l108 -98l-266 -240z" />
    <glyph glyph-name="Icircumflex" unicode="&#xce;" horiz-adv-x="389" 
d="M266 1544v-1544h-143v1544h143zM190 1954l261 -250l-76 -74l-185 176l-182 -176l-69 74z" />
    <glyph glyph-name="Idieresis" unicode="&#xcf;" horiz-adv-x="389" 
d="M266 1544v-1544h-143v1544h143zM-43 1790q0 38 28 66t66 28t66 -28t28 -66t-28 -66t-66 -28t-66 28t-28 66zM244 1790q0 38 28 66t66 28t66 -28t28 -66t-28 -66t-66 -28t-66 28t-28 66z" />
    <glyph glyph-name="Eth" unicode="&#xd0;" horiz-adv-x="843" 
d="M123 737h-148v131h148v676h156q74 0 121 -4t104 -20t91.5 -47t71 -86t55.5 -134.5t31.5 -196t12.5 -268.5q0 -160 -9 -274.5t-31 -205.5t-56 -147.5t-89 -93.5t-125 -52t-167 -15h-166v737zM266 868h140v-131h-140v-606h41q214 0 277 193q32 98 33 308q1 96 1 101
q0 148 -5 248.5t-19.5 180t-36.5 125.5t-60.5 76t-86.5 40t-119 10h-25v-545z" />
    <glyph glyph-name="Ntilde" unicode="&#xd1;" horiz-adv-x="890" 
d="M766 1544v-1544h-125l-348 1038q-14 37 -32 113t-21 86h-9q2 -31 7 -93.5t7.5 -111.5t2.5 -94v-938h-125v1544h125l354 -1073q21 -63 47 -160h6q-1 17 -7.5 91t-6.5 114v1028h125zM299 1706h-119q5 65 50 115.5t116 50.5q34 0 106 -37t91 -37q25 0 39 20t12 44h121
q-4 -58 -46.5 -112t-111.5 -54q-37 0 -117 39q-68 39 -92 39q-49 0 -49 -68z" />
    <glyph glyph-name="Ograve" unicode="&#xd2;" horiz-adv-x="913" 
d="M457 1565q72 0 130.5 -27t97 -70t67.5 -109t44.5 -131.5t25 -150.5t12 -153t2.5 -152q0 -57 -1 -104t-5.5 -112t-12 -118t-21.5 -114.5t-33.5 -109t-48.5 -93t-65 -75.5t-85 -48t-107 -18q-70 0 -127 25.5t-96 67.5t-68 106t-45.5 129.5t-26.5 149.5t-13 156t-3 158
q0 91 3.5 167.5t14 160t28 149.5t46.5 126.5t68 101t94.5 64.5t124.5 24zM457 1425q-40 2 -73 -13t-56.5 -47t-41 -69.5t-28.5 -92t-18 -102t-10 -112t-4 -110.5t-1 -107q0 -71 1 -123t6.5 -124.5t14.5 -124.5t26 -108.5t41 -91.5t60.5 -58t82.5 -23t82.5 23t60 58t41 91.5
t26.5 108.5t14 125t6 124.5t1 122.5t-1 122.5t-6 124.5t-14 125t-26.5 108.5t-41 91.5t-60 58t-82.5 23zM342 1968l223 -276l-65 -62l-267 240z" />
    <glyph glyph-name="Oacute" unicode="&#xd3;" horiz-adv-x="913" 
d="M457 1565q72 0 130.5 -27t97 -70t67.5 -109t44.5 -131.5t25 -150.5t12 -153t2.5 -152q0 -57 -1 -104t-5.5 -112t-12 -118t-21.5 -114.5t-33.5 -109t-48.5 -93t-65 -75.5t-85 -48t-107 -18q-70 0 -127 25.5t-96 67.5t-68 106t-45.5 129.5t-26.5 149.5t-13 156t-3 158
q0 91 3.5 167.5t14 160t28 149.5t46.5 126.5t68 101t94.5 64.5t124.5 24zM457 1425q-40 2 -73 -13t-56.5 -47t-41 -69.5t-28.5 -92t-18 -102t-10 -112t-4 -110.5t-1 -107q0 -71 1 -123t6.5 -124.5t14.5 -124.5t26 -108.5t41 -91.5t60.5 -58t82.5 -23t82.5 23t60 58t41 91.5
t26.5 108.5t14 125t6 124.5t1 122.5t-1 122.5t-6 124.5t-14 125t-26.5 108.5t-41 91.5t-60 58t-82.5 23zM348 1692l223 276l109 -98l-266 -240z" />
    <glyph glyph-name="Ocircumflex" unicode="&#xd4;" horiz-adv-x="913" 
d="M457 1565q72 0 130.5 -27t97 -70t67.5 -109t44.5 -131.5t25 -150.5t12 -153t2.5 -152q0 -57 -1 -104t-5.5 -112t-12 -118t-21.5 -114.5t-33.5 -109t-48.5 -93t-65 -75.5t-85 -48t-107 -18q-70 0 -127 25.5t-96 67.5t-68 106t-45.5 129.5t-26.5 149.5t-13 156t-3 158
q0 91 3.5 167.5t14 160t28 149.5t46.5 126.5t68 101t94.5 64.5t124.5 24zM457 1425q-40 2 -73 -13t-56.5 -47t-41 -69.5t-28.5 -92t-18 -102t-10 -112t-4 -110.5t-1 -107q0 -71 1 -123t6.5 -124.5t14.5 -124.5t26 -108.5t41 -91.5t60.5 -58t82.5 -23t82.5 23t60 58t41 91.5
t26.5 108.5t14 125t6 124.5t1 122.5t-1 122.5t-6 124.5t-14 125t-26.5 108.5t-41 91.5t-60 58t-82.5 23zM453 1954l260 -250l-76 -74l-184 176l-183 -176l-69 74z" />
    <glyph glyph-name="Otilde" unicode="&#xd5;" horiz-adv-x="913" 
d="M457 1565q72 0 130.5 -27t97 -70t67.5 -109t44.5 -131.5t25 -150.5t12 -153t2.5 -152q0 -57 -1 -104t-5.5 -112t-12 -118t-21.5 -114.5t-33.5 -109t-48.5 -93t-65 -75.5t-85 -48t-107 -18q-70 0 -127 25.5t-96 67.5t-68 106t-45.5 129.5t-26.5 149.5t-13 156t-3 158
q0 91 3.5 167.5t14 160t28 149.5t46.5 126.5t68 101t94.5 64.5t124.5 24zM457 1425q-40 2 -73 -13t-56.5 -47t-41 -69.5t-28.5 -92t-18 -102t-10 -112t-4 -110.5t-1 -107q0 -71 1 -123t6.5 -124.5t14.5 -124.5t26 -108.5t41 -91.5t60.5 -58t82.5 -23t82.5 23t60 58t41 91.5
t26.5 108.5t14 125t6 124.5t1 122.5t-1 122.5t-6 124.5t-14 125t-26.5 108.5t-41 91.5t-60 58t-82.5 23zM309 1706h-119q5 65 50 115.5t116 50.5q34 0 106 -37t91 -37q25 0 39 20t12 44h121q-4 -58 -46.5 -112t-111.5 -54q-9 0 -17 1t-18 4t-15.5 4.5t-17.5 7t-15.5 7
t-17.5 8t-15 7.5q-68 39 -93 39q-49 0 -49 -68z" />
    <glyph glyph-name="Odieresis" unicode="&#xd6;" horiz-adv-x="913" 
d="M457 1565q72 0 130.5 -27t97 -70t67.5 -109t44.5 -131.5t25 -150.5t12 -153t2.5 -152q0 -57 -1 -104t-5.5 -112t-12 -118t-21.5 -114.5t-33.5 -109t-48.5 -93t-65 -75.5t-85 -48t-107 -18q-70 0 -127 25.5t-96 67.5t-68 106t-45.5 129.5t-26.5 149.5t-13 156t-3 158
q0 91 3.5 167.5t14 160t28 149.5t46.5 126.5t68 101t94.5 64.5t124.5 24zM457 1425q-40 2 -73 -13t-56.5 -47t-41 -69.5t-28.5 -92t-18 -102t-10 -112t-4 -110.5t-1 -107q0 -71 1 -123t6.5 -124.5t14.5 -124.5t26 -108.5t41 -91.5t60.5 -58t82.5 -23t82.5 23t60 58t41 91.5
t26.5 108.5t14 125t6 124.5t1 122.5t-1 122.5t-6 124.5t-14 125t-26.5 108.5t-41 91.5t-60 58t-82.5 23zM219 1790q0 38 28 66t66 28t66.5 -28t28.5 -66t-28.5 -66t-66.5 -28t-66 28t-28 66zM506 1790q0 38 28 66t66 28t66 -28t28 -66t-28 -66t-66 -28t-66 28t-28 66z" />
    <glyph glyph-name="multiply" unicode="&#xd7;" horiz-adv-x="909" 
d="M455 451l-336 -336l-76 71l338 338l-338 338l76 74l336 -338l338 338l75 -72l-340 -340l340 -340l-75 -73z" />
    <glyph glyph-name="Oslash" unicode="&#xd8;" horiz-adv-x="913" 
d="M207 119l-66 -139l-92 45l101 206q-72 215 -72 553q0 182 19 319.5t51.5 224t81.5 141t102.5 75.5t120.5 21q171 0 256 -138l65 138l88 -45l-96 -205q70 -211 70 -543q0 -52 -1 -93t-5 -106t-11 -117t-20.5 -115.5t-32 -112.5t-47 -97.5t-64 -80t-85 -51t-107.5 -19.5
q-169 0 -256 139zM664 1122l-377 -858q53 -145 170 -145q81 0 130 59.5t75 204.5t26 389q0 178 -16 350h-8zM248 418l385 870q-61 137 -176 137q-25 0 -44 -3.5t-42 -13t-40 -30t-34.5 -52t-29.5 -81t-22 -115t-15 -156t-5 -202.5q0 -128 19 -354h4z" />
    <glyph glyph-name="Ugrave" unicode="&#xd9;" horiz-adv-x="880" 
d="M764 1544v-1055q0 -70 -2 -119t-9.5 -106t-21 -95.5t-37.5 -77t-58 -61t-83.5 -36.5t-112.5 -14q-51 0 -92.5 9t-73 23t-55.5 39t-40.5 50t-28.5 63t-18 70t-9.5 80t-4.5 84.5t-1 90.5v1055h143v-1046q0 -72 2 -118t8 -93.5t18 -75t31.5 -50.5t49.5 -32.5t71 -9.5
q49 0 82 16t52.5 42.5t30 77.5t13.5 104t3 139v1046h143zM295 1968l223 -276l-65 -62l-267 240z" />
    <glyph glyph-name="Uacute" unicode="&#xda;" horiz-adv-x="880" 
d="M764 1544v-1055q0 -70 -2 -119t-9.5 -106t-21 -95.5t-37.5 -77t-58 -61t-83.5 -36.5t-112.5 -14q-51 0 -92.5 9t-73 23t-55.5 39t-40.5 50t-28.5 63t-18 70t-9.5 80t-4.5 84.5t-1 90.5v1055h143v-1046q0 -72 2 -118t8 -93.5t18 -75t31.5 -50.5t49.5 -32.5t71 -9.5
q49 0 82 16t52.5 42.5t30 77.5t13.5 104t3 139v1046h143zM362 1692l224 276l108 -98l-266 -240z" />
    <glyph glyph-name="Ucircumflex" unicode="&#xdb;" horiz-adv-x="880" 
d="M764 1544v-1055q0 -70 -2 -119t-9.5 -106t-21 -95.5t-37.5 -77t-58 -61t-83.5 -36.5t-112.5 -14q-51 0 -92.5 9t-73 23t-55.5 39t-40.5 50t-28.5 63t-18 70t-9.5 80t-4.5 84.5t-1 90.5v1055h143v-1046q0 -72 2 -118t8 -93.5t18 -75t31.5 -50.5t49.5 -32.5t71 -9.5
q49 0 82 16t52.5 42.5t30 77.5t13.5 104t3 139v1046h143zM436 1954l260 -250l-75 -74l-185 176l-182 -176l-70 74z" />
    <glyph glyph-name="Udieresis" unicode="&#xdc;" horiz-adv-x="880" 
d="M764 1544v-1055q0 -70 -2 -119t-9.5 -106t-21 -95.5t-37.5 -77t-58 -61t-83.5 -36.5t-112.5 -14q-51 0 -92.5 9t-73 23t-55.5 39t-40.5 50t-28.5 63t-18 70t-9.5 80t-4.5 84.5t-1 90.5v1055h143v-1046q0 -72 2 -118t8 -93.5t18 -75t31.5 -50.5t49.5 -32.5t71 -9.5
q49 0 82 16t52.5 42.5t30 77.5t13.5 104t3 139v1046h143zM203 1790q0 38 28 66t66 28t66 -28t28 -66t-28 -66t-66 -28t-66 28t-28 66zM489 1790q0 38 28.5 66t66.5 28t66 -28t28 -66t-28 -66t-66 -28t-66.5 28t-28.5 66z" />
    <glyph glyph-name="Yacute" unicode="&#xdd;" horiz-adv-x="802" 
d="M764 1544l-283 -868v-676h-143v676l-299 868h154l153 -520q4 -14 25 -90t35 -117h8q35 180 45 215l151 512h154zM324 1692l223 276l108 -98l-266 -240z" />
    <glyph glyph-name="Thorn" unicode="&#xde;" horiz-adv-x="743" 
d="M266 0h-143v1544h143v-327q55 0 93 -2t87 -11t82.5 -25t68.5 -46t55.5 -71.5t34 -104t13.5 -142.5q-7 -231 -92 -317t-305 -86h-37v-412zM266 1085v-542h56q51 0 86.5 6t61 21t41 34t24.5 52.5t12.5 68.5t5.5 90q0 159 -53.5 214.5t-204.5 55.5h-29z" />
    <glyph glyph-name="germandbls" unicode="&#xdf;" horiz-adv-x="753" 
d="M371 926h-25v125h14q102 0 139.5 49t37.5 170q0 260 -154 260q-31 0 -54 -10t-38 -30.5t-24 -44t-13.5 -60t-6 -68t-1.5 -76.5v-1241h-133v926h-111v125h111v174q0 52 1.5 89t7.5 85.5t17 81.5t31 68.5t48 57t70.5 35t96.5 13.5q78 0 135.5 -27t90 -76t48 -110.5
t15.5 -136.5q0 -263 -152 -318q25 -9 47 -24t38 -37.5t28.5 -42.5t21.5 -53t15.5 -54t10 -60t5.5 -57t3 -58.5t1 -52v-48.5q0 -59 -2 -103.5t-9.5 -99t-21 -94.5t-37 -80.5t-56.5 -65.5t-81.5 -41t-109.5 -16h-29v125h16q42 0 68.5 6.5t53 29.5t40.5 66.5t22.5 119
t8.5 185.5q0 101 -7 169.5t-20 112.5t-37 68t-51 33t-69 11z" />
    <glyph glyph-name="agrave" unicode="&#xe0;" horiz-adv-x="714" 
d="M502 543q0 63 -2 110.5t-7 97.5t-15.5 85t-26.5 64t-40.5 43.5t-56.5 14.5q-35 0 -62 -17t-43.5 -51t-27 -70t-15 -88.5t-6 -91.5t-1.5 -93q0 -106 5 -184.5t16.5 -127t23.5 -78.5t31 -43.5t34.5 -17.5t38.5 -4q94 0 124 96.5t30 354.5zM623 1051v-1051h-134v82h-4
q-65 -98 -174 -98q-67 0 -110.5 22t-76.5 82t-48 169.5t-15 279.5q0 63 1 105t6.5 102.5t16 101t29.5 86t46.5 72.5t69 45t94.5 18q98 0 161 -88h4v72h134zM254 1536l223 -276l-65 -62l-267 240z" />
    <glyph glyph-name="aacute" unicode="&#xe1;" horiz-adv-x="714" 
d="M502 543q0 63 -2 110.5t-7 97.5t-15.5 85t-26.5 64t-40.5 43.5t-56.5 14.5q-35 0 -62 -17t-43.5 -51t-27 -70t-15 -88.5t-6 -91.5t-1.5 -93q0 -106 5 -184.5t16.5 -127t23.5 -78.5t31 -43.5t34.5 -17.5t38.5 -4q94 0 124 96.5t30 354.5zM623 1051v-1051h-134v82h-4
q-65 -98 -174 -98q-67 0 -110.5 22t-76.5 82t-48 169.5t-15 279.5q0 63 1 105t6.5 102.5t16 101t29.5 86t46.5 72.5t69 45t94.5 18q98 0 161 -88h4v72h134zM260 1260l223 276l109 -98l-266 -240z" />
    <glyph glyph-name="acircumflex" unicode="&#xe2;" horiz-adv-x="714" 
d="M502 543q0 63 -2 110.5t-7 97.5t-15.5 85t-26.5 64t-40.5 43.5t-56.5 14.5q-35 0 -62 -17t-43.5 -51t-27 -70t-15 -88.5t-6 -91.5t-1.5 -93q0 -106 5 -184.5t16.5 -127t23.5 -78.5t31 -43.5t34.5 -17.5t38.5 -4q94 0 124 96.5t30 354.5zM623 1051v-1051h-134v82h-4
q-65 -98 -174 -98q-67 0 -110.5 22t-76.5 82t-48 169.5t-15 279.5q0 63 1 105t6.5 102.5t16 101t29.5 86t46.5 72.5t69 45t94.5 18q98 0 161 -88h4v72h134zM354 1522l260 -250l-75 -74l-185 176l-182 -176l-70 74z" />
    <glyph glyph-name="atilde" unicode="&#xe3;" horiz-adv-x="714" 
d="M502 543q0 63 -2 110.5t-7 97.5t-15.5 85t-26.5 64t-40.5 43.5t-56.5 14.5q-35 0 -62 -17t-43.5 -51t-27 -70t-15 -88.5t-6 -91.5t-1.5 -93q0 -106 5 -184.5t16.5 -127t23.5 -78.5t31 -43.5t34.5 -17.5t38.5 -4q94 0 124 96.5t30 354.5zM623 1051v-1051h-134v82h-4
q-65 -98 -174 -98q-67 0 -110.5 22t-76.5 82t-48 169.5t-15 279.5q0 63 1 105t6.5 102.5t16 101t29.5 86t46.5 72.5t69 45t94.5 18q98 0 161 -88h4v72h134zM211 1274h-119q5 65 50 115.5t116 50.5q34 0 106 -37t91 -37q25 0 39 20t12 44h121q-4 -58 -46.5 -112t-111.5 -54
q-37 0 -117 39q-67 38 -92 38q-49 0 -49 -67z" />
    <glyph glyph-name="adieresis" unicode="&#xe4;" horiz-adv-x="714" 
d="M502 543q0 63 -2 110.5t-7 97.5t-15.5 85t-26.5 64t-40.5 43.5t-56.5 14.5q-35 0 -62 -17t-43.5 -51t-27 -70t-15 -88.5t-6 -91.5t-1.5 -93q0 -106 5 -184.5t16.5 -127t23.5 -78.5t31 -43.5t34.5 -17.5t38.5 -4q94 0 124 96.5t30 354.5zM623 1051v-1051h-134v82h-4
q-65 -98 -174 -98q-67 0 -110.5 22t-76.5 82t-48 169.5t-15 279.5q0 63 1 105t6.5 102.5t16 101t29.5 86t46.5 72.5t69 45t94.5 18q98 0 161 -88h4v72h134zM121 1358q0 38 28 66t66 28t66 -28t28 -66t-28 -66t-66 -28t-66 28t-28 66zM408 1358q0 38 28 66t66 28t66 -28
t28 -66t-28 -66t-66 -28t-66 28t-28 66z" />
    <glyph glyph-name="aring" unicode="&#xe5;" horiz-adv-x="714" 
d="M502 543q0 63 -2 110.5t-7 97.5t-15.5 85t-26.5 64t-40.5 43.5t-56.5 14.5q-35 0 -62 -17t-43.5 -51t-27 -70t-15 -88.5t-6 -91.5t-1.5 -93q0 -106 5 -184.5t16.5 -127t23.5 -78.5t31 -43.5t34.5 -17.5t38.5 -4q94 0 124 96.5t30 354.5zM623 1051v-1051h-134v82h-4
q-65 -98 -174 -98q-67 0 -110.5 22t-76.5 82t-48 169.5t-15 279.5q0 63 1 105t6.5 102.5t16 101t29.5 86t46.5 72.5t69 45t94.5 18q98 0 161 -88h4v72h134zM360 1575q77 0 131 -54t54 -130q0 -77 -54.5 -132t-130.5 -55t-131 55t-55 132q0 76 54.5 130t131.5 54zM360 1483
q-38 0 -66 -27t-28 -65t28 -66.5t66 -28.5t65.5 28.5t27.5 66.5t-27.5 65t-65.5 27z" />
    <glyph glyph-name="ae" unicode="&#xe6;" horiz-adv-x="1159" 
d="M649 610h314v19q0 313 -150 313q-47 0 -82 -37.5t-51.5 -94.5t-23.5 -107t-7 -93zM348 109q62 0 103.5 36.5t57 85t15.5 105.5q0 45 -7.5 85.5t-25.5 81.5t-54 65t-87 24q-47 0 -79.5 -22t-48.5 -60t-22.5 -76.5t-6.5 -83.5q0 -44 7 -82.5t22.5 -76t48 -60t77.5 -22.5z
M1098 498h-451v-31q0 -51 6 -102t22 -114t53 -102.5t91 -39.5q31 0 54.5 15t37 36.5t22.5 54t12 56t5 55.5l2 30h138q-1 -65 -14.5 -126.5t-42 -118.5t-81 -92t-121.5 -35q-105 0 -159.5 48.5t-85.5 141.5h-4q-29 -89 -98 -139.5t-156 -50.5q-73 0 -127 33.5t-83 89.5
t-43 118.5t-14 130.5q0 67 14.5 126t44.5 109t83 79.5t123 29.5q60 0 111 -22t81 -64h4v27q0 49 -4.5 88.5t-18.5 80.5t-37 69t-62.5 45.5t-92.5 17.5q-34 0 -69.5 -14t-55 -27t-57.5 -41v146q83 61 186 61q96 0 166.5 -49t104.5 -148h4q27 89 86.5 143t140.5 54
q51 0 93 -18.5t71 -49t51.5 -74t35 -88t21 -96t11 -94t2.5 -86.5v-63z" />
    <glyph glyph-name="ccedilla" unicode="&#xe7;" horiz-adv-x="569" 
d="M514 1026v-154q-66 70 -127 70q-49 0 -85.5 -33t-55.5 -79t-30 -109t-14 -108t-3 -91q0 -52 6.5 -110.5t23.5 -132.5t56 -122t94 -48q69 0 131 94h4v-166q-29 -24 -71 -38.5t-81 -14.5q-69 0 -124 37.5t-87 93.5t-53.5 129t-29 136.5t-7.5 123.5q0 47 3 94t11.5 104.5
t22.5 107t38 98t55.5 83t77 55.5t100.5 21q80 0 145 -41zM414 -143l-195 -310l-84 47l170 322z" />
    <glyph glyph-name="egrave" unicode="&#xe8;" horiz-adv-x="702" 
d="M201 610h305l-2 19q-1 27 -1.5 34t-2 36.5t-4 42t-6.5 40.5t-9.5 42t-13.5 36t-18.5 34t-24 24.5t-31 18t-37.5 5.5q-44 0 -77 -37.5t-48.5 -94.5t-22.5 -107t-7 -93zM641 498h-442v-31q0 -50 5.5 -101.5t21 -114.5t50.5 -102.5t86 -39.5q33 0 58.5 18t39.5 44.5t22.5 62
t11 64t2.5 58.5h137q-1 -65 -14.5 -126.5t-41.5 -118.5t-80.5 -92t-121.5 -35q-57 0 -104 19t-79 50.5t-56.5 76.5t-38 91.5t-22 102t-11.5 102t-3 96.5q0 45 3 90t11.5 100t21.5 103.5t36 96t53 81t73.5 54t96.5 20.5q51 0 93 -18.5t71 -49t51.5 -74t35 -88t21 -96t11 -94
t2.5 -86.5v-63zM248 1536l223 -276l-65 -62l-267 240z" />
    <glyph glyph-name="eacute" unicode="&#xe9;" horiz-adv-x="702" 
d="M201 610h305l-2 19q-1 27 -1.5 34t-2 36.5t-4 42t-6.5 40.5t-9.5 42t-13.5 36t-18.5 34t-24 24.5t-31 18t-37.5 5.5q-44 0 -77 -37.5t-48.5 -94.5t-22.5 -107t-7 -93zM641 498h-442v-31q0 -50 5.5 -101.5t21 -114.5t50.5 -102.5t86 -39.5q33 0 58.5 18t39.5 44.5t22.5 62
t11 64t2.5 58.5h137q-1 -65 -14.5 -126.5t-41.5 -118.5t-80.5 -92t-121.5 -35q-57 0 -104 19t-79 50.5t-56.5 76.5t-38 91.5t-22 102t-11.5 102t-3 96.5q0 45 3 90t11.5 100t21.5 103.5t36 96t53 81t73.5 54t96.5 20.5q51 0 93 -18.5t71 -49t51.5 -74t35 -88t21 -96t11 -94
t2.5 -86.5v-63zM254 1260l223 276l109 -98l-267 -240z" />
    <glyph glyph-name="ecircumflex" unicode="&#xea;" horiz-adv-x="702" 
d="M201 610h305l-2 19q-1 27 -1.5 34t-2 36.5t-4 42t-6.5 40.5t-9.5 42t-13.5 36t-18.5 34t-24 24.5t-31 18t-37.5 5.5q-44 0 -77 -37.5t-48.5 -94.5t-22.5 -107t-7 -93zM641 498h-442v-31q0 -50 5.5 -101.5t21 -114.5t50.5 -102.5t86 -39.5q33 0 58.5 18t39.5 44.5t22.5 62
t11 64t2.5 58.5h137q-1 -65 -14.5 -126.5t-41.5 -118.5t-80.5 -92t-121.5 -35q-57 0 -104 19t-79 50.5t-56.5 76.5t-38 91.5t-22 102t-11.5 102t-3 96.5q0 45 3 90t11.5 100t21.5 103.5t36 96t53 81t73.5 54t96.5 20.5q51 0 93 -18.5t71 -49t51.5 -74t35 -88t21 -96t11 -94
t2.5 -86.5v-63zM348 1522l260 -250l-76 -74l-184 176l-182 -176l-70 74z" />
    <glyph glyph-name="edieresis" unicode="&#xeb;" horiz-adv-x="702" 
d="M201 610h305l-2 19q-1 27 -1.5 34t-2 36.5t-4 42t-6.5 40.5t-9.5 42t-13.5 36t-18.5 34t-24 24.5t-31 18t-37.5 5.5q-44 0 -77 -37.5t-48.5 -94.5t-22.5 -107t-7 -93zM641 498h-442v-31q0 -50 5.5 -101.5t21 -114.5t50.5 -102.5t86 -39.5q33 0 58.5 18t39.5 44.5t22.5 62
t11 64t2.5 58.5h137q-1 -65 -14.5 -126.5t-41.5 -118.5t-80.5 -92t-121.5 -35q-57 0 -104 19t-79 50.5t-56.5 76.5t-38 91.5t-22 102t-11.5 102t-3 96.5q0 45 3 90t11.5 100t21.5 103.5t36 96t53 81t73.5 54t96.5 20.5q51 0 93 -18.5t71 -49t51.5 -74t35 -88t21 -96t11 -94
t2.5 -86.5v-63zM115 1358q0 38 28 66t66 28t66 -28t28 -66t-28 -66t-66 -28t-66 28t-28 66zM401 1358q0 38 28.5 66t66.5 28t66 -28t28 -66t-28 -66t-66 -28t-66.5 28t-28.5 66z" />
    <glyph glyph-name="igrave" unicode="&#xec;" horiz-adv-x="317" 
d="M225 1051v-1051h-133v1051h133zM76 1536l223 -276l-66 -62l-266 240z" />
    <glyph glyph-name="iacute" unicode="&#xed;" horiz-adv-x="317" 
d="M225 1051v-1051h-133v1051h133zM20 1260l224 276l108 -98l-266 -240z" />
    <glyph glyph-name="icircumflex" unicode="&#xee;" horiz-adv-x="317" 
d="M225 1051v-1051h-133v1051h133zM156 1522l260 -250l-76 -74l-184 176l-183 -176l-69 74z" />
    <glyph glyph-name="idieresis" unicode="&#xef;" horiz-adv-x="317" 
d="M225 1051v-1051h-133v1051h133zM-78 1358q0 38 28 66t66 28t66.5 -28t28.5 -66t-28.5 -66t-66.5 -28t-66 28t-28 66zM209 1358q0 38 28 66t66 28t66 -28t28 -66t-28 -66t-66 -28t-66 28t-28 66z" />
    <glyph glyph-name="eth" unicode="&#xf0;" horiz-adv-x="724" 
d="M526 526q0 51 -0.5 85t-4 82.5t-10 81t-18.5 68.5t-29 57.5t-43 35.5t-59 14q-49 0 -83.5 -40.5t-50.5 -109t-22.5 -134t-6.5 -140.5t6.5 -140t22.5 -132t50.5 -106t83.5 -39q32 0 56.5 13.5t41.5 41t28.5 62t19 84.5t11.5 99.5t7 116.5zM188 1184l-57 82l141 86
q-79 118 -202 241l106 43q120 -111 199 -221l141 86l57 -80l-143 -88q117 -180 177 -386.5t57 -420.5q-12 -199 -35 -292q-64 -250 -267 -250q-301 0 -301 542q0 50 5 102t17 113.5t35 114t55 97.5t81.5 70.5t110.5 25.5q36 0 88 -23q-59 136 -127 242z" />
    <glyph glyph-name="ntilde" unicode="&#xf1;" horiz-adv-x="727" 
d="M225 1051v-84q87 100 207 100q54 0 92.5 -20t59.5 -49t33 -74.5t15 -83t3 -88.5v-752h-133v737q0 44 -1.5 72t-8.5 59t-19.5 49t-35 29.5t-54.5 11.5q-44 0 -75 -19t-46.5 -45t-24.5 -68t-10.5 -71.5t-1.5 -72.5v-682h-133v1051h133zM217 1274h-119q5 65 50 115.5
t116 50.5q34 0 106 -37t91 -37q25 0 39 20t12 44h121q-4 -58 -46.5 -112t-111.5 -54q-37 0 -117 39q-67 38 -92 38q-49 0 -49 -67z" />
    <glyph glyph-name="ograve" unicode="&#xf2;" horiz-adv-x="727" 
d="M362 1067q302 0 302 -541q0 -542 -302 -542q-301 0 -301 542q0 541 301 541zM362 942q-163 0 -163 -416q0 -417 163 -417q164 0 164 417q0 36 -1 66.5t-5.5 84.5t-15.5 95.5t-28 82.5t-46.5 64t-67.5 23zM240 1536l223 -276l-66 -62l-266 240z" />
    <glyph glyph-name="oacute" unicode="&#xf3;" horiz-adv-x="727" 
d="M362 1067q302 0 302 -541q0 -542 -302 -542q-301 0 -301 542q0 541 301 541zM362 942q-163 0 -163 -416q0 -417 163 -417q164 0 164 417q0 36 -1 66.5t-5.5 84.5t-15.5 95.5t-28 82.5t-46.5 64t-67.5 23zM266 1260l223 276l109 -98l-266 -240z" />
    <glyph glyph-name="ocircumflex" unicode="&#xf4;" horiz-adv-x="727" 
d="M362 1067q302 0 302 -541q0 -542 -302 -542q-301 0 -301 542q0 541 301 541zM362 942q-163 0 -163 -416q0 -417 163 -417q164 0 164 417q0 36 -1 66.5t-5.5 84.5t-15.5 95.5t-28 82.5t-46.5 64t-67.5 23zM360 1522l261 -250l-76 -74l-185 176l-182 -176l-69 74z" />
    <glyph glyph-name="otilde" unicode="&#xf5;" horiz-adv-x="727" 
d="M362 1067q302 0 302 -541q0 -542 -302 -542q-301 0 -301 542q0 541 301 541zM362 942q-163 0 -163 -416q0 -417 163 -417q164 0 164 417q0 36 -1 66.5t-5.5 84.5t-15.5 95.5t-28 82.5t-46.5 64t-67.5 23zM217 1274h-119q5 65 50 115.5t116 50.5q34 0 106 -37t91 -37
q25 0 39 20t12 44h121q-4 -58 -46.5 -112t-111.5 -54q-37 0 -117 39q-67 38 -92 38q-49 0 -49 -67z" />
    <glyph glyph-name="odieresis" unicode="&#xf6;" horiz-adv-x="727" 
d="M362 1067q302 0 302 -541q0 -542 -302 -542q-301 0 -301 542q0 541 301 541zM362 942q-163 0 -163 -416q0 -417 163 -417q164 0 164 417q0 36 -1 66.5t-5.5 84.5t-15.5 95.5t-28 82.5t-46.5 64t-67.5 23zM127 1358q0 38 28 66t66 28t66 -28t28 -66t-28 -66t-66 -28
t-66 28t-28 66zM414 1358q0 38 28 66t66 28t66 -28t28 -66t-28 -66t-66 -28t-66 28t-28 66z" />
    <glyph glyph-name="divide" unicode="&#xf7;" horiz-adv-x="909" 
d="M43 578h825v-105h-825v105zM457 1028q43 0 73.5 -30.5t30.5 -73.5t-30.5 -74t-73.5 -31t-74 31t-31 74t31 73.5t74 30.5zM457 231q43 0 73.5 -30.5t30.5 -73.5t-30.5 -73.5t-73.5 -30.5t-74 30.5t-31 73.5t31 73.5t74 30.5z" />
    <glyph glyph-name="oslash" unicode="&#xf8;" horiz-adv-x="727" 
d="M510 715l-270 -504q43 -102 129 -102q36 0 64 22.5t44.5 63.5t27 82.5t14.5 95t5.5 84.5t1.5 67q0 28 -2 60t-5.5 71t-4.5 60h-4zM213 332l270 512q-13 40 -44 69t-70 29q-170 0 -170 -418q0 -34 10 -192h4zM102 -8l-73 43l84 145q-52 148 -52 344q0 59 4.5 113.5
t15.5 119.5t33.5 117.5t55 97.5t84.5 70t117 25q119 0 194 -100l60 100l71 -45l-82 -143q50 -135 50 -355q0 -540 -293 -540q-135 0 -213 104z" />
    <glyph glyph-name="ugrave" unicode="&#xf9;" horiz-adv-x="716" 
d="M84 1051h133v-660q0 -42 1.5 -71t5.5 -65t13.5 -59.5t24 -44.5t38.5 -31.5t56 -10.5q33 0 57.5 10t39.5 32t24.5 44.5t14 59.5t6 64.5t2.5 71.5v660h133v-772q0 -137 -69 -216t-206 -79q-136 0 -205 78.5t-69 216.5v772zM233 1536l224 -276l-66 -62l-266 240z" />
    <glyph glyph-name="uacute" unicode="&#xfa;" horiz-adv-x="716" 
d="M84 1051h133v-660q0 -42 1.5 -71t5.5 -65t13.5 -59.5t24 -44.5t38.5 -31.5t56 -10.5q33 0 57.5 10t39.5 32t24.5 44.5t14 59.5t6 64.5t2.5 71.5v660h133v-772q0 -137 -69 -216t-206 -79q-136 0 -205 78.5t-69 216.5v772zM260 1260l223 276l109 -98l-266 -240z" />
    <glyph glyph-name="ucircumflex" unicode="&#xfb;" horiz-adv-x="716" 
d="M84 1051h133v-660q0 -42 1.5 -71t5.5 -65t13.5 -59.5t24 -44.5t38.5 -31.5t56 -10.5q33 0 57.5 10t39.5 32t24.5 44.5t14 59.5t6 64.5t2.5 71.5v660h133v-772q0 -137 -69 -216t-206 -79q-136 0 -205 78.5t-69 216.5v772zM354 1522l260 -250l-75 -74l-185 176l-182 -176
l-70 74z" />
    <glyph glyph-name="udieresis" unicode="&#xfc;" horiz-adv-x="716" 
d="M84 1051h133v-660q0 -42 1.5 -71t5.5 -65t13.5 -59.5t24 -44.5t38.5 -31.5t56 -10.5q33 0 57.5 10t39.5 32t24.5 44.5t14 59.5t6 64.5t2.5 71.5v660h133v-772q0 -137 -69 -216t-206 -79q-136 0 -205 78.5t-69 216.5v772zM121 1358q0 38 28 66t66 28t66 -28t28 -66
t-28 -66t-66 -28t-66 28t-28 66zM408 1358q0 38 28 66t66 28t66 -28t28 -66t-28 -66t-66 -28t-66 28t-28 66z" />
    <glyph glyph-name="yacute" unicode="&#xfd;" horiz-adv-x="679" 
d="M664 1051l-363 -1452h-139l104 430l-250 1022h136l176 -848h6q45 225 55 270l135 578h140zM262 1260l223 276l109 -98l-266 -240z" />
    <glyph glyph-name="thorn" unicode="&#xfe;" horiz-adv-x="714" 
d="M225 82v-483h-133v1876h133v-496h4q63 88 164 88q50 0 90 -16t67 -42.5t46 -68.5t30 -84t17.5 -100t8 -106.5t1.5 -112.5q0 -90 -3.5 -156.5t-12.5 -133t-27 -111.5t-45 -81t-67.5 -53.5t-94.5 -17.5q-109 0 -174 98h-4zM367 92q33 0 57 12t40.5 39.5t27 61.5t15.5 90
t7 112.5t2 139.5q0 44 -0.5 73.5t-4 76.5t-9 79t-17 69t-28 60t-41.5 38t-56 15q-29 0 -52.5 -14t-38.5 -34.5t-26 -55t-16.5 -66t-9 -77t-4 -78t-0.5 -78.5q0 -66 1.5 -112.5t6 -105.5t15 -98t27 -75t43 -54t61.5 -18z" />
    <glyph glyph-name="ydieresis" unicode="&#xff;" horiz-adv-x="679" 
d="M664 1051l-363 -1452h-139l104 430l-250 1022h136l176 -848h6q45 225 55 270l135 578h140zM102 1358q0 38 28.5 66t66.5 28t66 -28t28 -66t-28 -66t-66 -28t-66.5 28t-28.5 66zM389 1358q0 38 28 66t66 28t66.5 -28t28.5 -66t-28.5 -66t-66.5 -28t-66 28t-28 66z" />
    <glyph glyph-name="dotlessi" unicode="&#x131;" horiz-adv-x="317" 
d="M225 1051v-1051h-133v1051h133z" />
    <glyph glyph-name="Lslash" unicode="&#x141;" horiz-adv-x="602" 
d="M123 0v666l-111 -76v127l111 76v751h143v-655l185 125v-123l-185 -127v-633h336v-131h-479z" />
    <glyph glyph-name="lslash" unicode="&#x142;" horiz-adv-x="317" 
d="M92 0v842l-117 -90v110l117 90v686h133v-583l117 88v-107l-117 -90v-946h-133z" />
    <glyph glyph-name="OE" unicode="&#x152;" horiz-adv-x="1255" 
d="M813 1413v-545h332v-131h-332v-606h342v-131h-477v160h-4q-28 -80 -92.5 -130t-145.5 -50q-57 0 -104.5 20.5t-82 53.5t-62 84t-45 100.5t-30.5 116t-19 118.5t-10 118.5t-4.5 105.5t-0.5 91q0 64 2 121t11 139t23.5 149t42 138t65 119.5t94.5 79.5t128 31
q72 0 134 -44.5t96 -113.5h4v137h477v-131h-342zM225 733q0 -113 6 -202t21.5 -168t40.5 -131.5t64.5 -82.5t91.5 -30q48 0 83 14t60 47t41 78.5t25 118t12.5 155.5t3.5 201q0 109 -2 186t-7.5 154.5t-15.5 128.5t-27 97t-41 71.5t-57.5 40t-77.5 14.5q-47 0 -84.5 -30
t-60.5 -85.5t-39 -119.5t-23.5 -148t-10.5 -155t-3 -154z" />
    <glyph glyph-name="oe" unicode="&#x153;" horiz-adv-x="1146" 
d="M639 610h311l-2 19q-6 149 -29 214q-36 99 -118 99q-47 0 -81 -37.5t-50.5 -94.5t-23.5 -107t-7 -93zM356 942q-41 3 -71.5 -28.5t-46.5 -77t-25.5 -109t-11.5 -108t-2 -91.5q0 -29 1.5 -59.5t6 -82.5t15 -95.5t27 -86t44 -68t63.5 -27.5q40 0 70.5 34.5t46.5 82.5
t26 111t12.5 108t2.5 85q0 39 -2 80t-11.5 104.5t-25 110.5t-46.5 82t-73 35zM1085 498h-448v-31q0 -39 3 -78t13.5 -92t28 -92.5t50 -67.5t75.5 -28q31 0 54.5 15t37 36.5t22.5 54t12 56t5 55.5l2 30h137q-1 -65 -14.5 -126.5t-41.5 -118.5t-80.5 -92t-121.5 -35
q-90 0 -155.5 59.5t-90.5 161.5h-4q-19 -93 -77 -157t-146 -64q-142 0 -213.5 144.5t-71.5 397.5q0 52 4 104t14.5 116.5t32 119t52 101t79 73.5t109.5 27q83 0 143.5 -67.5t73.5 -153.5h4q16 88 81 154.5t147 66.5q59 0 106 -24t77 -67t51 -92.5t31.5 -110t14.5 -110.5
t4 -102v-63z" />
    <glyph glyph-name="Scaron" unicode="&#x160;" horiz-adv-x="796" 
d="M659 1483v-183q-52 60 -105.5 92.5t-121.5 32.5q-103 0 -163 -72.5t-60 -176.5q0 -29 5.5 -57t12 -49.5t22 -46t26 -40t34.5 -37.5t36 -32.5t42 -32.5t41.5 -29.5t44.5 -30.5q50 -35 79 -57.5t68.5 -62t61 -76.5t37.5 -91t16 -116q0 -85 -27 -163.5t-75.5 -140
t-122.5 -98t-162 -36.5q-142 0 -244 77v187q118 -125 250 -125q109 0 172.5 80.5t61.5 191.5q1 60 -15.5 108t-60 93t-69 65.5t-92.5 67.5q-5 4 -8 6.5t-8 5.5t-9 6q-49 33 -79 56.5t-69.5 63t-62 78.5t-38.5 94.5t-16 119.5q0 106 40.5 198t123 152t191.5 60q124 0 243 -82
zM655 1880l-260 -250l-252 250l70 74l182 -176l185 176z" />
    <glyph glyph-name="scaron" unicode="&#x161;" horiz-adv-x="569" 
d="M494 999v-163h-5q-75 106 -174 106q-59 0 -95 -39.5t-36 -99.5q0 -16 2.5 -31.5t10 -31t12.5 -26t19 -26.5t20 -23.5t25.5 -25t24.5 -22t28.5 -24t27.5 -22.5q40 -33 64 -57t52 -60t41 -78t13 -91q0 -129 -79 -215t-207 -86q-48 0 -100 19.5t-91 51.5v156
q47 -49 89.5 -75.5t96.5 -26.5q68 0 111 46t43 113q0 30 -11 60t-22.5 49.5t-41.5 51t-43 43t-52 46.5q-39 34 -63 59t-52 61t-41.5 76t-13.5 85q0 119 72 193.5t190 74.5q97 0 185 -68zM561 1448l-260 -250l-252 250l70 74l182 -176l184 176z" />
    <glyph glyph-name="Ydieresis" unicode="&#x178;" horiz-adv-x="802" 
d="M764 1544l-283 -868v-676h-143v676l-299 868h154l153 -520q4 -14 25 -90t35 -117h8q35 180 45 215l151 512h154zM176 1790q0 38 28 66t66 28t66.5 -28t28.5 -66t-28.5 -66t-66.5 -28t-66 28t-28 66zM463 1790q0 38 28 66t66 28t66 -28t28 -66t-28 -66t-66 -28t-66 28
t-28 66z" />
    <glyph glyph-name="Zcaron" unicode="&#x17d;" horiz-adv-x="686" 
d="M647 1544l-432 -1413h389v-131h-565l428 1413h-387v131h567zM616 1880l-260 -250l-252 250l70 74l182 -176l185 176z" />
    <glyph glyph-name="zcaron" unicode="&#x17e;" horiz-adv-x="677" 
d="M578 123v-123h-547l415 928h-358v123h559l-426 -928h357zM616 1448l-260 -250l-252 250l70 74l182 -176l185 176z" />
    <glyph glyph-name="florin" unicode="&#x192;" 
d="M727 997h-180l-182 -1034q-10 -54 -18.5 -89t-27 -77.5t-42.5 -67.5t-64 -42t-92 -17q-50 0 -121 23l25 141q45 -41 90 -41q83 0 112 164l183 1040h-125l18 107h127l55 323q9 53 17.5 89t27 78t43 67t65 42t93.5 17q68 0 119 -22l-25 -142q-26 22 -43.5 31.5t-44.5 9.5
q-51 0 -75 -39.5t-39 -123.5l-58 -330h180z" />
    <glyph glyph-name="circumflex" unicode="&#x2c6;" horiz-adv-x="573" 
d="M283 1522l260 -250l-76 -74l-184 176l-183 -176l-69 74z" />
    <glyph glyph-name="caron" unicode="&#x2c7;" horiz-adv-x="573" 
d="M543 1448l-260 -250l-252 250l69 74l183 -176l184 176z" />
    <glyph glyph-name="breve" unicode="&#x2d8;" horiz-adv-x="573" 
d="M463 1430h102q-6 -70 -49 -120.5t-102 -73t-125 -22.5q-105 0 -187 56.5t-92 159.5h105q16 -55 65 -79t109 -24t109 24t65 79z" />
    <glyph glyph-name="dotaccent" unicode="&#x2d9;" horiz-adv-x="573" 
d="M193 1358q0 38 28 66t66 28t66 -28t28 -66t-28 -66t-66 -28t-66 28t-28 66z" />
    <glyph glyph-name="ring" unicode="&#x2da;" horiz-adv-x="573" 
d="M289 1575q77 0 130.5 -53.5t53.5 -130.5t-54 -132t-130 -55q-77 0 -132 55t-55 132q0 76 55 130t132 54zM289 1483q-38 0 -66 -27t-28 -65t28 -66.5t66 -28.5t65 28t27 67q0 38 -27 65t-65 27z" />
    <glyph glyph-name="ogonek" unicode="&#x2db;" horiz-adv-x="573" 
d="M254 0h104q-39 -35 -69.5 -81.5t-30.5 -86.5q0 -36 25.5 -54t62.5 -18q35 0 90 19v-111q-50 -20 -108 -20q-78 0 -131.5 40t-53.5 115q0 94 111 197z" />
    <glyph glyph-name="tilde" unicode="&#x2dc;" horiz-adv-x="573" 
d="M139 1274h-119q5 65 50 115.5t116 50.5q34 0 106 -37t91 -37q25 0 39 20t12 44h121q-4 -58 -46.5 -112t-111.5 -54q-9 0 -17 1t-18 4t-15.5 4.5t-17.5 7t-15.5 7t-17.5 8t-15 7.5q-67 38 -93 38q-49 0 -49 -67z" />
    <glyph glyph-name="hungarumlaut" unicode="&#x2dd;" horiz-adv-x="573" 
d="M160 1520l131 -50l-162 -272l-86 31zM399 1520l131 -50l-163 -272l-84 31z" />
    <glyph glyph-name="endash" unicode="&#x2013;" horiz-adv-x="1024" 
d="M0 573v162h1024v-162h-1024z" />
    <glyph glyph-name="emdash" unicode="&#x2014;" horiz-adv-x="2048" 
d="M266 573v162h1516v-162h-1516z" />
    <glyph glyph-name="quoteleft" unicode="&#x2018;" horiz-adv-x="458" 
d="M381 1518l-160 -478l-143 68l205 457z" />
    <glyph glyph-name="quoteright" unicode="&#x2019;" horiz-adv-x="458" 
d="M381 1497l-205 -457l-98 47l160 478z" />
    <glyph glyph-name="quotesinglbase" unicode="&#x201a;" horiz-adv-x="458" 
d="M319 127l-204 -457l-99 47l160 478z" />
    <glyph glyph-name="quotedblleft" unicode="&#x201c;" horiz-adv-x="733" 
d="M350 1108l205 457l100 -47l-159 -478zM78 1108l205 457l98 -47l-160 -478z" />
    <glyph glyph-name="quotedblright" unicode="&#x201d;" horiz-adv-x="733" 
d="M176 1040l-98 47l160 478l143 -68zM451 1040l-99 47l160 478l143 -68z" />
    <glyph glyph-name="quotedblbase" unicode="&#x201e;" horiz-adv-x="733" 
d="M381 127l-205 -457l-98 47l160 478zM655 127l-204 -457l-99 47l160 478z" />
    <glyph glyph-name="dagger" unicode="&#x2020;" horiz-adv-x="849" 
d="M362 -281v1297h-245v125h245v403h125v-403h246v-125h-246v-1297h-125z" />
    <glyph glyph-name="daggerdbl" unicode="&#x2021;" horiz-adv-x="849" 
d="M362 954h-245v125h245v465h125v-465h246v-125h-246v-557h246v-125h-246v-553h-125v553h-245v125h245v557z" />
    <glyph glyph-name="bullet" unicode="&#x2022;" horiz-adv-x="849" 
d="M428 1159q157 0 270 -114t113 -271q0 -156 -113.5 -270.5t-269.5 -114.5q-159 0 -273 114.5t-114 270.5q0 157 114 271t273 114z" />
    <glyph glyph-name="ellipsis" unicode="&#x2026;" horiz-adv-x="2048" 
d="M340 193q43 0 73.5 -31t30.5 -74t-30.5 -73.5t-73.5 -30.5t-73.5 30.5t-30.5 73.5t30.5 74t73.5 31zM1024 193q43 0 73.5 -31t30.5 -74t-30.5 -73.5t-73.5 -30.5t-73.5 30.5t-30.5 73.5t30.5 74t73.5 31zM1708 193q43 0 73.5 -31t30.5 -74t-30.5 -73.5t-73.5 -30.5
t-73.5 30.5t-30.5 73.5t30.5 74t73.5 31z" />
    <glyph glyph-name="perthousand" unicode="&#x2030;" horiz-adv-x="1554" 
d="M901 1544l-668 -1544h-69l672 1544h65zM829 770q44 0 77.5 -18t53.5 -53.5t32.5 -70.5t17.5 -87t6.5 -85t1.5 -81t-1.5 -81t-6.5 -85t-17.5 -87t-32.5 -70.5t-53.5 -53.5t-77.5 -18q-38 0 -68 15t-49.5 37t-33.5 58.5t-21 67.5t-11 76t-4.5 72.5t-0.5 68.5t0.5 68.5
t4.5 72.5t11 76t21 67.5t33.5 58.5t49.5 37t68 15zM829 692q-23 0 -41 -14t-28.5 -41t-17.5 -56t-10 -69t-4 -69.5t-1 -67.5q0 -47 1.5 -82t7 -82.5t16 -78.5t30.5 -53t47 -22q23 0 41 14t28.5 41t18 56.5t10.5 69t4 69.5t1 68t-1 67.5t-4 69.5t-10.5 69t-18 56t-28.5 41
t-41 14zM1315 770q38 0 68 -15t49.5 -37t33.5 -58.5t21 -67.5t11 -76t4.5 -72.5t0.5 -68.5t-0.5 -68.5t-4.5 -72.5t-11 -76t-21 -67.5t-33.5 -58.5t-49.5 -37t-68 -15q-44 0 -77.5 18t-53.5 53.5t-32.5 70.5t-17.5 87t-6.5 85t-1.5 81t1.5 81t6.5 85t17.5 87t32.5 70.5
t53.5 53.5t77.5 18zM1315 692q-23 0 -41 -14t-28.5 -41t-18 -56t-10.5 -69t-4 -69.5t-1 -67.5t1 -68t4 -69.5t10.5 -69t18 -56.5t28.5 -41t41 -14q34 0 56 30t31 84.5t12 99t3 104.5q0 38 -1 67.5t-4 69.5t-10 69t-17.5 56t-28.5 41t-41 14zM240 774q-44 0 -77.5 18
t-53.5 53.5t-32.5 70.5t-17.5 87t-6.5 85t-1.5 81q0 40 0.5 68t4.5 73t11 76.5t21 67.5t33.5 58.5t50 37.5t68.5 15t68 -15t49.5 -37.5t33.5 -58.5t21 -67.5t11 -76.5t4.5 -72.5t0.5 -68.5t-0.5 -68.5t-4.5 -72.5t-11 -76t-21 -67.5t-33.5 -58.5t-49.5 -37t-68 -15z
M240 1487q-23 0 -41 -14t-28.5 -41t-18 -56.5t-10.5 -69t-4 -69.5t-1 -68t1 -67.5t4 -69.5t10.5 -69t18 -56t28.5 -41t41 -14t41 14t28.5 41t17.5 56t10 69t4 69.5t1 67.5q0 47 -1.5 82t-7 82.5t-16 78.5t-30.5 53t-47 22z" />
    <glyph glyph-name="guilsinglleft" unicode="&#x2039;" horiz-adv-x="509" 
d="M344 211l-252 436l252 449l88 -52l-219 -397l219 -387z" />
    <glyph glyph-name="guilsinglright" unicode="&#x203a;" horiz-adv-x="509" 
d="M166 1096l252 -437l-252 -448l-88 51l219 397l-219 388z" />
    <glyph glyph-name="fraction" unicode="&#x2044;" horiz-adv-x="249" 
d="M502 1544l-668 -1544h-86l670 1544h84z" />
    <glyph glyph-name="fraction" unicode="&#x2215;" horiz-adv-x="249" 
d="M502 1544l-668 -1544h-86l670 1544h84z" />
    <glyph glyph-name="Euro" unicode="&#x20ac;" 
d="M782 1493v-150q-75 82 -215 82q-127 0 -193 -117t-77 -325h414l-31 -121h-391q-2 -27 -2 -88t2 -84h348l-31 -121h-309q27 -450 268 -450q135 0 217 82v-152q-71 -67 -237 -67t-262 141.5t-119 445.5h-119l31 121h78q-2 20 -2 84q0 61 2 88h-109l31 121h86
q44 582 385 582q155 0 235 -72z" />
    <glyph glyph-name="trademark" unicode="&#x2122;" horiz-adv-x="1478" 
d="M1364 1544v-862h-104v754h-5l-192 -754h-74l-190 754h-4v-754h-105v862h180l154 -608h4l160 608h176zM598 1544v-104h-188v-758h-105v758h-188v104h481z" />
    <glyph glyph-name="minus" unicode="&#x2212;" horiz-adv-x="909" 
d="M868 578v-105h-825v105h825z" />
    <glyph glyph-name="fi" unicode="&#xfb01;" horiz-adv-x="743" 
d="M420 1051v-123h-174v-928h-133v928h-113v123h113v311q0 146 44 219.5t152 73.5q64 0 117 -23v-145q-19 15 -30 22.5t-29.5 15t-36.5 7.5q-51 0 -67.5 -41t-16.5 -127v-313h174zM651 1051v-1051h-133v1051h133zM684 1362q0 -41 -29 -70.5t-69 -29.5q-41 0 -71 29.5
t-30 70.5q0 40 30 69t71 29q40 0 69 -29t29 -69z" />
    <glyph glyph-name="fl" unicode="&#xfb02;" horiz-adv-x="743" 
d="M651 1638v-1638h-133v1638h133zM420 1051v-123h-174v-928h-133v928h-113v123h113v309q0 154 49.5 224.5t146.5 70.5q64 0 117 -23v-145q-19 15 -30 22.5t-29.5 15t-36.5 7.5q-28 0 -45.5 -10.5t-25.5 -35.5t-10.5 -51.5t-2.5 -72.5v-311h174z" />
    </font>
</defs>
</svg>
