<?xml version="1.0" standalone="no"?>
<!DOCTYPE svg PUBLIC "-//W3C//DTD SVG 1.1//EN" "http://www.w3.org/Graphics/SVG/1.1/DTD/svg11.dtd" >
<svg xmlns="http://www.w3.org/2000/svg" xmlns:xlink="http://www.w3.org/1999/xlink" version="1.1">
<metadata>
Created by FontForge 20170731 at Fri Jan  1 02:30:17 1904
 By Aleksey,,,
</metadata>
<defs>
<font id="Futura-Bold" horiz-adv-x="0" >
  <font-face 
    font-family="Futura"
    font-weight="700"
    font-stretch="normal"
    units-per-em="2048"
    panose-1="2 2 8 0 0 0 0 0 0 0"
    ascent="1638"
    descent="-410"
    x-height="1010"
    cap-height="1464"
    bbox="-1157 -485 2669 2228"
    underline-thickness="272"
    underline-position="-641"
    unicode-range="U+0020-F02A"
  />
<missing-glyph horiz-adv-x="1536" 
d="M256 0v1280h1024v-1280h-1024zM1247 33v1214h-958v-1214h958z" />
    <glyph glyph-name=".notdef" horiz-adv-x="1536" 
d="M256 0v1280h1024v-1280h-1024zM1247 33v1214h-958v-1214h958z" />
    <glyph glyph-name=".null" 
 />
    <glyph glyph-name="nonmarkingreturn" 
 />
    <glyph glyph-name="space" unicode=" " horiz-adv-x="641" 
 />
    <glyph glyph-name="space" unicode="&#x2031;" horiz-adv-x="641" 
 />
    <glyph glyph-name="space" unicode="&#x2025;" horiz-adv-x="641" 
 />
    <glyph glyph-name="space" unicode="&#x2024;" horiz-adv-x="641" 
 />
    <glyph glyph-name="space" unicode="&#x2023;" horiz-adv-x="641" 
 />
    <glyph glyph-name="space" unicode="&#x201f;" horiz-adv-x="641" 
 />
    <glyph glyph-name="space" unicode="&#x201b;" horiz-adv-x="641" 
 />
    <glyph glyph-name="space" unicode="&#x2017;" horiz-adv-x="641" 
 />
    <glyph glyph-name="space" unicode="&#x2016;" horiz-adv-x="641" 
 />
    <glyph glyph-name="space" unicode="&#x2015;" horiz-adv-x="641" 
 />
    <glyph glyph-name="exclam" unicode="!" horiz-adv-x="702" 
d="M166 487v1045h371v-1045h-371zM150 164q0 84 59 143q57 60 141 60q88 0 146 -58q57 -57 57 -145q0 -83 -59 -144q-61 -59 -144 -59q-80 0 -141 59q-59 59 -59 144z" />
    <glyph glyph-name="quotedbl" unicode="&#x22;" horiz-adv-x="713" 
d="M416 1438h223v-561h-223v561zM76 1438h219v-561h-219v561z" />
    <glyph glyph-name="numbersign" unicode="#" horiz-adv-x="1575" 
d="M707 842l-82 -232h245l82 232h-245zM684 1466h250l-139 -393h235l141 393h250l-139 -393h270l-86 -231h-268l-80 -230h277l-84 -231h-275l-141 -393h-250l139 393h-235l-141 -393h-250l139 393h-274l86 231h270l82 230h-283l86 231h279z" />
    <glyph glyph-name="dollar" unicode="$" horiz-adv-x="1280" 
d="M238 475q86 -101 176 -149q89 -50 180 -50q74 0 125 43q49 43 49 109q0 70 -41 111q-47 39 -190 77q-225 62 -316 154q-90 93 -90 254q0 200 125 322q129 124 348 145v139h129v-137q97 -10 172 -41q81 -29 166 -86l-127 -285q-69 60 -137 86q-72 29 -143 29
q-73 0 -115 -33q-45 -32 -45 -88q0 -55 39 -88q38 -32 153 -63q-1 0 13 -4q245 -65 323 -146q53 -53 80 -129t27 -166q0 -209 -125 -346q-126 -135 -338 -158v-243h-129v239q-144 3 -260 54q-119 51 -230 157z" />
    <glyph glyph-name="percent" unicode="%" horiz-adv-x="1851" 
d="M426 825q68 0 96 60q31 58 31 190q0 135 -31 193q-26 57 -96 57t-96 -57q-31 -58 -31 -193q0 -132 31 -190q28 -60 96 -60zM803 1075q0 -184 -103 -293q-101 -110 -274 -110q-172 0 -274 108q-103 112 -103 295t103 295q101 109 274 109t274 -109q103 -112 103 -295z
M1444 115q69 0 96 59q31 58 31 193q0 132 -31 190q-27 59 -96 59t-96 -59q-31 -58 -31 -190q0 -135 31 -193q27 -59 96 -59zM1819 367q0 -187 -103 -295q-100 -111 -272 -111q-173 0 -275 111q-102 108 -102 295q0 185 102 295q103 108 275 108t274 -108q101 -107 101 -295z
M393 -39l879 1518h188l-885 -1518h-182z" />
    <glyph glyph-name="percent" unicode="&#x202f;" horiz-adv-x="1851" 
d="M426 825q68 0 96 60q31 58 31 190q0 135 -31 193q-26 57 -96 57t-96 -57q-31 -58 -31 -193q0 -132 31 -190q28 -60 96 -60zM803 1075q0 -184 -103 -293q-101 -110 -274 -110q-172 0 -274 108q-103 112 -103 295t103 295q101 109 274 109t274 -109q103 -112 103 -295z
M1444 115q69 0 96 59q31 58 31 193q0 132 -31 190q-27 59 -96 59t-96 -59q-31 -58 -31 -190q0 -135 31 -193q27 -59 96 -59zM1819 367q0 -187 -103 -295q-100 -111 -272 -111q-173 0 -275 111q-102 108 -102 295q0 185 102 295q103 108 275 108t274 -108q101 -107 101 -295z
M393 -39l879 1518h188l-885 -1518h-182z" />
    <glyph glyph-name="percent" unicode="&#x202e;" horiz-adv-x="1851" 
d="M426 825q68 0 96 60q31 58 31 190q0 135 -31 193q-26 57 -96 57t-96 -57q-31 -58 -31 -193q0 -132 31 -190q28 -60 96 -60zM803 1075q0 -184 -103 -293q-101 -110 -274 -110q-172 0 -274 108q-103 112 -103 295t103 295q101 109 274 109t274 -109q103 -112 103 -295z
M1444 115q69 0 96 59q31 58 31 193q0 132 -31 190q-27 59 -96 59t-96 -59q-31 -58 -31 -190q0 -135 31 -193q27 -59 96 -59zM1819 367q0 -187 -103 -295q-100 -111 -272 -111q-173 0 -275 111q-102 108 -102 295q0 185 102 295q103 108 275 108t274 -108q101 -107 101 -295z
M393 -39l879 1518h188l-885 -1518h-182z" />
    <glyph glyph-name="percent" unicode="&#x202d;" horiz-adv-x="1851" 
d="M426 825q68 0 96 60q31 58 31 190q0 135 -31 193q-26 57 -96 57t-96 -57q-31 -58 -31 -193q0 -132 31 -190q28 -60 96 -60zM803 1075q0 -184 -103 -293q-101 -110 -274 -110q-172 0 -274 108q-103 112 -103 295t103 295q101 109 274 109t274 -109q103 -112 103 -295z
M1444 115q69 0 96 59q31 58 31 193q0 132 -31 190q-27 59 -96 59t-96 -59q-31 -58 -31 -190q0 -135 31 -193q27 -59 96 -59zM1819 367q0 -187 -103 -295q-100 -111 -272 -111q-173 0 -275 111q-102 108 -102 295q0 185 102 295q103 108 275 108t274 -108q101 -107 101 -295z
M393 -39l879 1518h188l-885 -1518h-182z" />
    <glyph glyph-name="percent" unicode="&#x202c;" horiz-adv-x="1851" 
d="M426 825q68 0 96 60q31 58 31 190q0 135 -31 193q-26 57 -96 57t-96 -57q-31 -58 -31 -193q0 -132 31 -190q28 -60 96 -60zM803 1075q0 -184 -103 -293q-101 -110 -274 -110q-172 0 -274 108q-103 112 -103 295t103 295q101 109 274 109t274 -109q103 -112 103 -295z
M1444 115q69 0 96 59q31 58 31 193q0 132 -31 190q-27 59 -96 59t-96 -59q-31 -58 -31 -190q0 -135 31 -193q27 -59 96 -59zM1819 367q0 -187 -103 -295q-100 -111 -272 -111q-173 0 -275 111q-102 108 -102 295q0 185 102 295q103 108 275 108t274 -108q101 -107 101 -295z
M393 -39l879 1518h188l-885 -1518h-182z" />
    <glyph glyph-name="percent" unicode="&#x202b;" horiz-adv-x="1851" 
d="M426 825q68 0 96 60q31 58 31 190q0 135 -31 193q-26 57 -96 57t-96 -57q-31 -58 -31 -193q0 -132 31 -190q28 -60 96 -60zM803 1075q0 -184 -103 -293q-101 -110 -274 -110q-172 0 -274 108q-103 112 -103 295t103 295q101 109 274 109t274 -109q103 -112 103 -295z
M1444 115q69 0 96 59q31 58 31 193q0 132 -31 190q-27 59 -96 59t-96 -59q-31 -58 -31 -190q0 -135 31 -193q27 -59 96 -59zM1819 367q0 -187 -103 -295q-100 -111 -272 -111q-173 0 -275 111q-102 108 -102 295q0 185 102 295q103 108 275 108t274 -108q101 -107 101 -295z
M393 -39l879 1518h188l-885 -1518h-182z" />
    <glyph glyph-name="percent" unicode="&#x202a;" horiz-adv-x="1851" 
d="M426 825q68 0 96 60q31 58 31 190q0 135 -31 193q-26 57 -96 57t-96 -57q-31 -58 -31 -193q0 -132 31 -190q28 -60 96 -60zM803 1075q0 -184 -103 -293q-101 -110 -274 -110q-172 0 -274 108q-103 112 -103 295t103 295q101 109 274 109t274 -109q103 -112 103 -295z
M1444 115q69 0 96 59q31 58 31 193q0 132 -31 190q-27 59 -96 59t-96 -59q-31 -58 -31 -190q0 -135 31 -193q27 -59 96 -59zM1819 367q0 -187 -103 -295q-100 -111 -272 -111q-173 0 -275 111q-102 108 -102 295q0 185 102 295q103 108 275 108t274 -108q101 -107 101 -295z
M393 -39l879 1518h188l-885 -1518h-182z" />
    <glyph glyph-name="percent" unicode="&#x2029;" horiz-adv-x="1851" 
d="M426 825q68 0 96 60q31 58 31 190q0 135 -31 193q-26 57 -96 57t-96 -57q-31 -58 -31 -193q0 -132 31 -190q28 -60 96 -60zM803 1075q0 -184 -103 -293q-101 -110 -274 -110q-172 0 -274 108q-103 112 -103 295t103 295q101 109 274 109t274 -109q103 -112 103 -295z
M1444 115q69 0 96 59q31 58 31 193q0 132 -31 190q-27 59 -96 59t-96 -59q-31 -58 -31 -190q0 -135 31 -193q27 -59 96 -59zM1819 367q0 -187 -103 -295q-100 -111 -272 -111q-173 0 -275 111q-102 108 -102 295q0 185 102 295q103 108 275 108t274 -108q101 -107 101 -295z
M393 -39l879 1518h188l-885 -1518h-182z" />
    <glyph glyph-name="percent" unicode="&#x2028;" horiz-adv-x="1851" 
d="M426 825q68 0 96 60q31 58 31 190q0 135 -31 193q-26 57 -96 57t-96 -57q-31 -58 -31 -193q0 -132 31 -190q28 -60 96 -60zM803 1075q0 -184 -103 -293q-101 -110 -274 -110q-172 0 -274 108q-103 112 -103 295t103 295q101 109 274 109t274 -109q103 -112 103 -295z
M1444 115q69 0 96 59q31 58 31 193q0 132 -31 190q-27 59 -96 59t-96 -59q-31 -58 -31 -190q0 -135 31 -193q27 -59 96 -59zM1819 367q0 -187 -103 -295q-100 -111 -272 -111q-173 0 -275 111q-102 108 -102 295q0 185 102 295q103 108 275 108t274 -108q101 -107 101 -295z
M393 -39l879 1518h188l-885 -1518h-182z" />
    <glyph glyph-name="percent" unicode="&#x2027;" horiz-adv-x="1851" 
d="M426 825q68 0 96 60q31 58 31 190q0 135 -31 193q-26 57 -96 57t-96 -57q-31 -58 -31 -193q0 -132 31 -190q28 -60 96 -60zM803 1075q0 -184 -103 -293q-101 -110 -274 -110q-172 0 -274 108q-103 112 -103 295t103 295q101 109 274 109t274 -109q103 -112 103 -295z
M1444 115q69 0 96 59q31 58 31 193q0 132 -31 190q-27 59 -96 59t-96 -59q-31 -58 -31 -190q0 -135 31 -193q27 -59 96 -59zM1819 367q0 -187 -103 -295q-100 -111 -272 -111q-173 0 -275 111q-102 108 -102 295q0 185 102 295q103 108 275 108t274 -108q101 -107 101 -295z
M393 -39l879 1518h188l-885 -1518h-182z" />
    <glyph glyph-name="ampersand" unicode="&#x26;" horiz-adv-x="1651" 
d="M1165 0l-129 150q-100 -96 -221 -144q-113 -45 -258 -45q-193 0 -317 115q-125 113 -125 293q0 142 82 243q79 107 258 199q-67 75 -103 154q-33 73 -33 147q0 146 115 246q118 98 291 98q201 0 315 -96q115 -100 115 -264q0 -108 -61 -199q-68 -94 -189 -170l172 -180
q36 29 103 92q42 41 102 111l209 -215q-42 -51 -100 -115q-59 -59 -101 -92l318 -328h-443zM836 348l-236 258q-69 -60 -100 -110q-33 -50 -33 -101q0 -65 45 -106q42 -45 111 -45q51 0 102 26q52 25 111 78zM733 899l47 39q48 40 76 84q27 40 27 80q0 51 -33 86
q-37 33 -92 33q-64 0 -99.5 -33.5t-35.5 -95.5q0 -23 16 -60q14 -33 37 -63z" />
    <glyph glyph-name="quotesingle" unicode="'" horiz-adv-x="371" 
d="M76 1438h219v-561h-219v561z" />
    <glyph glyph-name="parenleft" unicode="(" horiz-adv-x="743" 
d="M684 -317l-219 -152q-185 225 -272 465q-89 240 -89 522q0 285 89 524q88 242 272 465l227 -147q-149 -178 -219 -379q-70 -204 -70 -463q0 -243 68 -450q70 -207 213 -385z" />
    <glyph glyph-name="parenright" unicode=")" horiz-adv-x="743" 
d="M61 -317q141 175 213 385q68 207 68 450q0 257 -70.5 461t-220.5 381l230 147q90 -109 159 -227.5t111 -235.5q88 -240 88 -526q0 -282 -88 -524q-42 -117 -109.5 -233t-160.5 -230z" />
    <glyph glyph-name="asterisk" unicode="*" horiz-adv-x="1067" 
d="M600 1208l205 160l100 -178l-239 -96l241 -99l-102 -176l-205 160l35 -258h-203l33 258l-203 -160l-102 176l243 99l-243 96l102 176l205 -158l-37 256h205z" />
    <glyph glyph-name="plus" unicode="+" horiz-adv-x="1706" 
d="M735 1221h238v-494h479v-231h-479v-496h-238v496h-481v231h481v494z" />
    <glyph glyph-name="comma" unicode="," horiz-adv-x="639" 
d="M240 332h372l-309 -627h-276z" />
    <glyph glyph-name="hyphen" unicode="-" horiz-adv-x="1706" 
d="M254 729h1198v-235h-1198v235z" />
    <glyph glyph-name="period" unicode="." horiz-adv-x="639" 
d="M119 164q0 86 57 143q58 58 143 58q88 0 146 -58q57 -57 57 -143q0 -87 -57 -144q-61 -59 -146 -59q-82 0 -143 59q-57 57 -57 144z" />
    <glyph glyph-name="slash" unicode="/" horiz-adv-x="938" 
d="M0 -190l717 1687h221l-715 -1687h-223z" />
    <glyph glyph-name="zero" unicode="0" horiz-adv-x="1280" 
d="M1194 707q0 -347 -147 -547q-148 -199 -406 -199t-405 203q-48 64 -83 150.5t-51 186.5t-16 220q0 178 37.5 317t112.5 240q148 201 405 201q261 0 408 -201q145 -207 145 -571zM455 721q0 -244 45 -350q45 -111 141 -111q94 0 139 111q45 106 45 350q0 241 -45 348
q-45 113 -139 113q-99 0 -141 -109q-45 -107 -45 -352z" />
    <glyph glyph-name="one" unicode="1" horiz-adv-x="1280" 
d="M492 0v1118h-314l172 332h506v-1450h-364z" />
    <glyph glyph-name="two" unicode="2" horiz-adv-x="1280" 
d="M1157 0h-1118l657 778q64 77 88 129q29 60 29 107q0 77 -47 127q-52 47 -129 47q-94 0 -143 -60q-52 -61 -52 -174v-18h-352v10q0 247 146 391q143 144 397 144q246 0 391 -127q147 -126 147 -338q0 -101 -47 -201q-47 -99 -151 -213l-264 -291h448v-311z" />
    <glyph glyph-name="three" unicode="3" horiz-adv-x="1280" 
d="M84 485h371v-24q0 -98 45 -146q46 -49 133 -49q89 0 141 47q49 46 49 138q0 102 -53 149t-164 47h-26q-7 -2 -19 -2v236h21q101 0 155 45q54 43 54 127q0 69 -46 108q-44 43 -116 43q-76 0 -117 -41q-42 -38 -45 -116h-354q3 203 143 319q137 113 391 113q224 0 352 -101
q129 -100 129 -276q0 -110 -59 -189q-61 -80 -172 -112q137 -25 213 -119.5t76 -241.5q0 -214 -152 -346q-151 -133 -395 -133q-256 0 -406 137q-149 137 -149 373v14z" />
    <glyph glyph-name="four" unicode="4" horiz-adv-x="1280" 
d="M721 614v426q0 47 4 101q0 40 6 67q-20 -47 -43 -86q-7 -13 -57 -98l-269 -410h359zM721 0v328h-666v286l545 842h455v-842h162v-288l-162 2v-328h-334z" />
    <glyph glyph-name="five" unicode="5" horiz-adv-x="1280" 
d="M1094 1450v-299h-555l-29 -188q68 13 90 16q62 4 90 4q222 0 352 -133q129 -132 129 -363q0 -242 -159 -385q-163 -141 -441 -141q-136 0 -247 31q-114 27 -203 86l26 354l31 -6q50 -78 144 -127q89 -47 194 -47q139 0 215 67q76 64 76 187q0 117 -82 190q-83 74 -213 74
q-88 0 -160 -29q-64 -27 -127 -90l-49 29l121 770h797z" />
    <glyph glyph-name="six" unicode="6" horiz-adv-x="1280" 
d="M641 700q-103 0 -162 -59q-59 -62 -59 -166q0 -102 59 -164q59 -59 162 -59t162 59q59 62 59 164q0 104 -59 166q-59 59 -162 59zM623 934q40 11 73 16q37 6 80 6q189 0 307 -131q123 -132 123 -331q0 -242 -151 -388q-156 -145 -410 -145q-256 0 -405 143
q-47 44 -82 105.5t-51.5 130.5t-16.5 152q0 130 51 258q49 131 211 383l205 317h408z" />
    <glyph glyph-name="seven" unicode="7" horiz-adv-x="1280" 
d="M195 0l550 1122h-618v328h1118v-70l-637 -1380h-413z" />
    <glyph glyph-name="eight" unicode="8" horiz-adv-x="1280" 
d="M639 901q82 0 127 45q47 47 47 123q0 78 -45 123q-46 43 -129 43q-81 0 -127 -43q-45 -45 -45 -123q0 -76 47 -123q45 -45 125 -45zM639 254q97 0 149 51q54 54 54 144q0 87 -54 141q-52 51 -149 51q-95 0 -147 -51q-54 -54 -54 -141q0 -89 56 -142q51 -53 145 -53z
M897 782q145 -27 221 -125q80 -101 80 -254q0 -208 -147.5 -325t-411.5 -117q-261 0 -410 117q-147 117 -147 325q0 153 80 254q76 98 221 125q-114 28 -178 107q-64 76 -64 194q0 188 131 291q132 105 367 105q237 0 369 -105q131 -103 131 -291q0 -118 -64 -194
q-64 -79 -178 -107z" />
    <glyph glyph-name="nine" unicode="9" horiz-adv-x="1280" 
d="M651 741q102 0 161.5 59.5t59.5 164.5q0 104 -59.5 164.5t-161.5 60.5t-162 -60q-59 -62 -59 -165t59 -164q60 -60 162 -60zM670 508q-44 -12 -72 -16q-38 -7 -82 -7q-188 0 -307 131q-123 129 -123 330q0 245 152 389q151 146 407 146t406 -144q149 -143 149 -387
q0 -134 -57 -274q-26 -64 -77 -156t-128 -211l-203 -309h-407z" />
    <glyph glyph-name="colon" unicode=":" horiz-adv-x="702" 
d="M150 799q0 84 59 143q54 57 141 57q89 0 146 -57t57 -143q0 -83 -59 -144q-59 -59 -144 -59q-82 0 -141 59t-59 144zM150 164q0 84 59 143q55 58 141 58q88 0 146 -58q57 -57 57 -143q0 -83 -59 -144q-61 -59 -144 -59q-80 0 -141 59q-59 59 -59 144z" />
    <glyph glyph-name="semicolon" unicode=";" horiz-adv-x="702" 
d="M244 799q0 84 59 143q57 57 143 57q87 0 144 -57t57 -143q0 -87 -57 -144q-59 -59 -144 -59q-84 0 -143 59t-59 144zM266 332h373l-309 -627h-277z" />
    <glyph glyph-name="less" unicode="&#x3c;" horiz-adv-x="1706" 
d="M1442 1214v-253l-854 -351l854 -348v-254l-1178 486v233z" />
    <glyph glyph-name="equal" unicode="=" horiz-adv-x="1706" 
d="M254 502h1198v-230h-1198v230zM254 950h1198v-231h-1198v231z" />
    <glyph glyph-name="greater" unicode="&#x3e;" horiz-adv-x="1706" 
d="M264 1214l1178 -487v-233l-1178 -486v254l854 348l-854 351v253z" />
    <glyph glyph-name="question" unicode="?" horiz-adv-x="1239" 
d="M399 164q0 83 60 143t143 60q86 0 143 -58q58 -58 58 -145q0 -86 -58.5 -144.5t-142.5 -58.5q-82 0 -143 59q-60 60 -60 144zM786 496h-344v413h109q113 0 172 45q57 45 57 133q0 69 -45 116.5t-112 47.5q-69 0 -109 -37q-42 -40 -45 -110h-342v4q0 193 138.5 310.5
t373.5 117.5q213 0 342 -123t129 -323q0 -166 -88 -273q-90 -105 -234 -108z" />
    <glyph glyph-name="at" unicode="@" horiz-adv-x="2048" 
d="M1161 262q-53 -78 -127 -121q-72 -37 -168 -37q-165 0 -248 89q-83 86 -83 256q0 243 143 405q137 162 348 162q78 0 133 -31q56 -29 96 -92l52 92h206l-153 -610v-6q-4 -26 -4 -27q0 -30 16 -43q16 -16 47 -16q138 0 242 143q102 144 102 336q0 242 -180 391
q-178 150 -467 150q-140 0 -274 -35q-124 -37 -230 -111q-156 -111 -239.5 -274t-83.5 -357q0 -303 203 -481q201 -180 544 -180q166 0 316 49q154 48 280 137l97 -135q-75 -57 -160.5 -101.5t-167.5 -72.5q-177 -59 -365 -59q-192 0 -354 49q-79 23 -149.5 58.5
t-139.5 86.5q-77 60 -134.5 130t-98.5 153q-39 82 -58.5 172t-19.5 188q0 166 53 322q27 75 66 144t90 132q148 183 360 279q212 94 467 94q173 0 319.5 -45t260.5 -133q140 -110 203 -244q67 -134 67 -305q0 -165 -65 -307q-64 -137 -191 -240q-68 -54 -153 -86
q-93 -29 -177 -29q-107 0 -161 39q-57 42 -60 121zM1198 696q-9 75 -49 115q-41 41 -111 41q-102 0 -182 -121q-78 -125 -78 -287q0 -80 35 -129q34 -45 98 -45q82 0 148 60q63 57 88 157z" />
    <glyph glyph-name="A" unicode="A" horiz-adv-x="1479" 
d="M543 547h397l-149 483q-5 13 -19 72q-17 69 -31 125q-14 -51 -24 -103q-16 -50 -27 -94zM-16 0l505 1464h500l506 -1464h-397l-74 262h-567l-76 -262h-397z" />
    <glyph glyph-name="B" unicode="B" horiz-adv-x="1389" 
d="M526 879h80q149 0 203 32q55 34 55 113q0 83 -51 117q-56 35 -201 35h-86v-297zM156 0v1464h401q242 0 346 -16q97 -15 170 -55q80 -47 123 -119q43 -76 43 -176q0 -127 -63.5 -199.5t-202.5 -110.5q152 -12 244 -108q88 -98 88 -262q0 -116 -50 -205q-50 -92 -141 -139
q-70 -37 -184 -58q-118 -16 -361 -16h-413zM526 299h140q142 0 200 37q60 34 60 117q0 90 -54 129q-54 36 -200 36h-146v-319z" />
    <glyph glyph-name="C" unicode="C" horiz-adv-x="1286" 
d="M1217 1407v-436q-86 93 -162 135q-85 41 -176 41q-171 0 -279 -117q-37 -42 -60 -87.5t-34.5 -103t-11.5 -116.5q0 -176 108 -293q109 -115 277 -115q90 0 176 43q76 39 162 134v-437q-111 -52 -189 -69q-97 -23 -190 -23q-118 0 -222 28.5t-186 86.5q-164 112 -250 276
q-86 170 -86 377q0 166 56 305q25 67 63.5 126.5t99.5 123.5q105 108 236 160q130 53 289 53q91 0 190 -22q98 -26 189 -70z" />
    <glyph glyph-name="D" unicode="D" horiz-adv-x="1569" 
d="M156 0v1464h305q346 0 483 -32q142 -32 248 -107q140 -96 211 -248q72 -153 72 -346t-72 -346q-71 -150 -211 -248q-110 -75 -242 -104q-132 -33 -422 -33h-67h-305zM551 328h67q236 0 343 98q108 96 108 305q0 208 -108 307t-343 99h-67v-809z" />
    <glyph glyph-name="E" unicode="E" horiz-adv-x="1161" 
d="M156 0v1464h897v-321h-508v-254h479v-314h-479v-247h508v-328h-897z" />
    <glyph glyph-name="F" unicode="F" horiz-adv-x="1114" 
d="M156 0v1464h897v-321h-508v-254h479v-314h-479v-575h-389z" />
    <glyph glyph-name="G" unicode="G" horiz-adv-x="1726" 
d="M852 539v307h784q0 -21 2 -33v-53q0 -379 -198 -586q-200 -209 -563 -209q-173 0 -316 53q-138 53 -248 164q-105 107 -161 248q-30 75 -44 150.5t-14 150.5q0 162 56 301q56 135 167 248q106 106 252 162q144 55 308 55q214 0 380 -86q53 -26 104.5 -64.5t95 -85.5
t79.5 -102l-346 -166q-62 85 -139 127q-79 41 -174 41q-180 0 -281 -119q-102 -118 -102 -327q0 -210 102 -330q101 -119 281 -119q153 0 253 76q104 75 119 197h-397z" />
    <glyph glyph-name="H" unicode="H" horiz-adv-x="1642" 
d="M156 0v1464h399v-569h532v569h400v-1464h-400v596h-532v-596h-399z" />
    <glyph glyph-name="I" unicode="I" horiz-adv-x="735" 
d="M166 0v1464h403v-1464h-403z" />
    <glyph glyph-name="J" unicode="J" horiz-adv-x="981" 
d="M442 1464h400v-950q0 -160 -21 -238q-17 -78 -65 -147q-65 -87 -150 -125q-87 -43 -200 -43q-136 0 -246 59q-104 56 -185 175l244 221q9 -68 41 -101q36 -34 84 -34q59 0 80 63q18 64 18 315v805z" />
    <glyph glyph-name="K" unicode="K" horiz-adv-x="1485" 
d="M156 0v1464h395v-665l463 665h465l-541 -714l588 -750h-498l-477 657v-657h-395z" />
    <glyph glyph-name="L" unicode="L" horiz-adv-x="1090" 
d="M156 0v1464h399v-1122h496v-342h-895z" />
    <glyph glyph-name="M" unicode="M" horiz-adv-x="1894" 
d="M1835 0h-373l-86 633q-11 85 -16 149q-7 63 -14 179q-18 -104 -56 -232q-8 -25 -12 -43l-199 -686h-266l-199 686q-3 17 -12 43q-42 135 -55 232q-8 -110 -15 -164q-3 -28 -9 -82t-9 -82l-86 -633h-371l226 1464h395l221 -755q6 -21 8 -27q29 -94 39 -172q2 27 15 88
q4 15 30 113l223 753h396z" />
    <glyph glyph-name="N" unicode="N" horiz-adv-x="1745" 
d="M156 0v1464h385l553 -753q21 -31 53 -93q41 -80 80 -165q-15 115 -17 161q-6 72 -6 127v723h383v-1464h-383l-553 756q-12 16 -53 94q-36 64 -80 162q10 -78 19 -162q4 -94 4 -127v-723h-385z" />
    <glyph glyph-name="O" unicode="O" horiz-adv-x="1753" 
d="M1659 729q0 -159 -57 -297q-57 -135 -170 -246q-112 -108 -256 -166q-151 -59 -299 -59q-150 0 -299 59q-147 59 -254 166q-108 103 -170 248q-60 142 -60 295t60 295q62 145 170 248q110 110 254 168q140 57 299 57t301 -57.5t253.5 -167.5t170.5 -248q57 -138 57 -295z
M877 299q165 0 276 123q55 61 81 137t26 170q0 183 -109 307q-111 123 -274 123q-167 0 -275 -123t-108 -307q0 -191 106 -309q109 -121 277 -121z" />
    <glyph glyph-name="P" unicode="P" horiz-adv-x="1298" 
d="M530 0h-374v1464h417q243 0 345 -24q100 -26 167 -82q80 -67 123 -166q43 -101 43 -225q0 -132 -43 -230q-38 -99 -123 -164q-61 -48 -147 -69q-77 -21 -268 -21h-68h-72v-483zM530 805h76q142 0 201 41q57 38 57 133q0 91 -55.5 130.5t-198.5 39.5h-80v-344z" />
    <glyph glyph-name="Q" unicode="Q" horiz-adv-x="1753" 
d="M1118 584l76 -101q34 48 49 111q17 66 17 125q0 192 -107 317q-110 125 -276 125q-163 0 -273 -125q-110 -122 -110 -307q0 -188 108 -311q111 -123 277 -123q20 0 49 6q22 3 51 16l-207 267h346zM1690 -172h-340l-156 205q-59 -32 -141 -51q-80 -17 -170 -17
q-131 0 -240 33q-113 33 -213 98q-156 105 -246 275q-90 171 -90 360q0 153 60 294.5t170 248.5q108 107 251 166q142 57 302 57q159 0 301 -57q142 -59 252 -166q112 -111 169 -248q60 -142 60 -295q0 -160 -60 -305q-59 -137 -176 -244z" />
    <glyph glyph-name="R" unicode="R" horiz-adv-x="1313" 
d="M156 0v1464h417q121 0 204.5 -5t137.5 -17q93 -22 166 -76q80 -60 121 -154q43 -90 43 -204q0 -169 -84 -277q-82 -108 -243 -141l399 -590h-451l-336 573v-573h-374zM530 772h74q131 0 189 43q59 48 59 139q0 110 -55 156q-56 47 -187 47h-80v-385z" />
    <glyph glyph-name="S" unicode="S" horiz-adv-x="1190" 
d="M221 473q92 -102 176 -151q88 -50 172 -50q79 0 131 43t52 109q0 72 -43 113q-46 39 -203 81q-214 58 -303 150q-90 94 -90 256q0 210 141 342q139 133 364 133q127 0 230 -33q108 -33 205 -98l-125 -287q-66 57 -140 88q-72 29 -141 29q-70 0 -117 -35q-45 -33 -45 -88
q0 -53 39 -88q41 -33 154 -63q4 -1 7 -1.5t9 -2.5q244 -65 322 -146q51 -51 80 -129q26 -74 26 -168q0 -232 -153 -375q-154 -141 -408 -141q-156 0 -278.5 51t-241.5 164z" />
    <glyph glyph-name="T" unicode="T" horiz-adv-x="1133" 
d="M367 0v1118h-328v346h1055v-346h-328v-1118h-399z" />
    <glyph glyph-name="U" unicode="U" horiz-adv-x="1597" 
d="M145 1464h400v-712q0 -163 8 -226q10 -75 27 -114q21 -57 79 -84q58 -31 140 -31q81 0 139 31q53 26 80 84q16 40 26 114q9 60 9 226v100v612h397v-774q0 -238 -29 -354q-27 -115 -98 -197q-78 -91 -207 -133q-128 -45 -317 -45q-193 0 -318 45q-127 42 -207 133
q-69 80 -98 197q-31 118 -31 354v152v622z" />
    <glyph glyph-name="V" unicode="V" horiz-adv-x="1456" 
d="M575 0l-614 1464h424l293 -819l3.5 -13.5t12.5 -47.5q12 -52 33 -135q13 60 31 120q13 59 20 76l291 819h424l-614 -1464h-304z" />
    <glyph glyph-name="W" unicode="W" horiz-adv-x="1987" 
d="M1153 1464l184 -696q12 -42 25 -98q4 -20 11 -57.5t11 -59.5q14 65 25 129q6 31 21 86l172 696h403l-414 -1464h-370l-181 625q-19 70 -32 129q-1 6 -6 24t-11 43q-2 -7 -14 -59q-18 -80 -35 -137l-178 -625h-371l-413 1464h403l168 -700q8 -35 24 -109q16 -78 21 -110
q13 62 20 88q18 82 31 131l184 700h322z" />
    <glyph glyph-name="X" unicode="X" horiz-adv-x="1446" 
d="M674 1124q2 -2 2 -4q36 -71 47 -116q9 43 45 108q3 9 6 12l176 340h475l-489 -704l541 -760h-453l-250 434q-8 15 -18 35t-13 25q-7 17 -20 61q-11 -43 -21 -66q-5 -12 -28 -55l-250 -434h-453l543 768l-491 696h475z" />
    <glyph glyph-name="Y" unicode="Y" horiz-adv-x="1223" 
d="M416 0v668l-512 796h458l197 -377q3 -3 6 -12q31 -57 43 -112q9 48 43 108l8 16l195 377h459l-512 -796v-668h-385z" />
    <glyph glyph-name="Z" unicode="Z" horiz-adv-x="1386" 
d="M1298 0h-1294l739 1147h-593v317h1232l-737 -1145h653v-319z" />
    <glyph glyph-name="bracketleft" unicode="[" horiz-adv-x="743" 
d="M180 1497h508v-242h-219v-1474h219v-242h-508v1958z" />
    <glyph glyph-name="backslash" unicode="\" horiz-adv-x="938" 
d="M717 -190l-717 1687h223l715 -1687h-221z" />
    <glyph glyph-name="bracketright" unicode="]" horiz-adv-x="743" 
d="M563 1497v-1958h-506v242h217v1474h-217v242h506z" />
    <glyph glyph-name="asciicircum" unicode="^" horiz-adv-x="2048" 
d="M879 1462h288l465 -563h-264l-344 342l-346 -342h-264z" />
    <glyph glyph-name="underscore" unicode="_" horiz-adv-x="1024" 
d="M0 -244h1024v-239h-1024v239z" />
    <glyph glyph-name="grave" unicode="`" horiz-adv-x="1024" 
d="M223 1497h281l182 -350h-154z" />
    <glyph glyph-name="a" unicode="a" horiz-adv-x="1352" 
d="M901 506q0 120 -63 186q-64 70 -172 70t-170 -68q-64 -70 -64 -188q0 -119 64 -187q61 -67 170 -67q108 0 171.5 67t63.5 187zM1214 1010v-1010h-327v164q-71 -105 -158.5 -154t-204.5 -49q-203 0 -323 148q-59 73 -90 172t-31 223q0 248 127 393t340 145q114 0 196 -49
q83 -47 142 -149v166h329z" />
    <glyph glyph-name="b" unicode="b" horiz-adv-x="1352" 
d="M449 504q0 -121 63 -187q58 -67 168 -67q109 0 170 67t61 187q0 119 -61 186q-62 68 -170 68q-109 0 -168 -68q-63 -66 -63 -186zM133 1550h340v-528q0 -78 -2 -107q-4 -51 -8 -73q63 109 143 153q80 47 209 47q202 0 328 -147q125 -149 125 -391q0 -249 -125 -395
q-126 -148 -340 -148q-107 0 -189 51q-85 49 -153 152v-164h-328v1550z" />
    <glyph glyph-name="c" unicode="c" horiz-adv-x="944" 
d="M856 678q-52 46 -100 67q-43 21 -101 21q-107 0 -168 -70q-63 -69 -63 -190q0 -116 65 -184q63 -70 175 -70q53 0 102 22q52 25 90 66v-309q-64 -34 -129 -54q-69 -16 -131 -16q-234 0 -377 150q-49 50 -80.5 110t-48 130t-16.5 153q0 239 146.5 388.5t379.5 149.5
q73 0 139 -16q64 -16 117 -47v-301z" />
    <glyph glyph-name="d" unicode="d" horiz-adv-x="1352" 
d="M903 504q0 119 -61 186q-65 68 -172 68q-108 0 -170 -68t-62 -186q0 -119 62 -187q61 -67 170 -67q108 0 172 67q61 67 61 187zM1219 1550v-1550h-328v164q-68 -103 -154 -152q-80 -51 -188 -51q-212 0 -338.5 148t-126.5 395q0 240 127 391q126 147 326 147
q128 0 208 -47q77 -43 144 -153q-4 27 -8 82q-4 60 -4 98v528h342z" />
    <glyph glyph-name="e" unicode="e" horiz-adv-x="1251" 
d="M827 635q-9 84 -65 137t-137 53q-85 0 -138 -47q-55 -53 -69 -143h409zM1178 434h-768q3 -118 59 -180q58 -64 168 -64q80 0 137 31q58 33 84 90l268 -108q-47 -115 -170 -178q-122 -64 -299 -64q-264 0 -424 148q-159 144 -159 385q0 235 159 393q159 155 404 155
q250 0 395 -157q74 -81 110 -188.5t36 -245.5v-17z" />
    <glyph glyph-name="f" unicode="f" horiz-adv-x="719" 
d="M166 0v758h-152v252h152v207q0 175 96 266q95 88 287 88q13 0 65 -4q56 -9 80 -15v-272q-18 7 -45 14q-28 4 -37 4q-52 0 -73 -30q-23 -32 -23 -97v-161h178v-252h-178v-758h-350z" />
    <glyph glyph-name="g" unicode="g" horiz-adv-x="1352" 
d="M901 508q0 117 -61 184q-66 66 -174 66t-174 -66q-64 -67 -64 -184q0 -118 64 -182q65 -68 174 -68q107 0 172 68q63 63 63 182zM1214 1010v-1008q0 -229 -139 -338q-67 -54 -176 -82t-256 -28q-239 0 -371 88q-132 89 -141 247h369q10 -48 53 -73q44 -27 117 -27
q114 0 159 55q43 55 43 234v92q-57 -96 -143 -141q-89 -47 -207 -47q-200 0 -321 145q-59 71 -90 167.5t-31 217.5q0 242 127 387q63 72 148.5 107.5t191.5 35.5q113 0 196 -47q82 -44 142 -147v162h329z" />
    <glyph glyph-name="h" unicode="h" horiz-adv-x="1337" 
d="M131 0v1550h350v-544q0 -39 -4 -101q-3 -54 -8 -82q67 113 158 166q92 53 217 53q99 0 176 -30q76 -34 123 -92q43 -58 57 -123q17 -83 17 -219v-578h-357v541q0 123 -39 176q-39 55 -127 55q-110 0 -162 -82q-51 -82 -51 -266v-424h-350z" />
    <glyph glyph-name="i" unicode="i" horiz-adv-x="639" 
d="M123 0v1010h356v-1010h-356zM168 1270h2q0 56 39 92q39 39 94 39q58 0 95.5 -37t37.5 -94q0 -58 -39 -96q-38 -39 -94 -39q-57 0 -96 41q-39 38 -39 94z" />
    <glyph glyph-name="j" unicode="j" horiz-adv-x="639" 
d="M123 1325q0 83 57 137q58 58 139 58q83 0 142 -56q55 -55 55 -139t-57.5 -141.5t-139.5 -57.5q-79 0 -139 60q-57 57 -57 139zM141 -446v1456h357v-1456h-357z" />
    <glyph glyph-name="k" unicode="k" horiz-adv-x="1313" 
d="M133 0v1550h350v-981l367 441h442l-454 -486l495 -524h-469l-381 449v-449h-350z" />
    <glyph glyph-name="l" unicode="l" horiz-adv-x="639" 
d="M141 0v1550h357v-1550h-357z" />
    <glyph glyph-name="m" unicode="m" horiz-adv-x="1942" 
d="M1466 0v551q0 130 -30 180q-34 51 -113 51q-101 0 -139 -69q-39 -68 -39 -285v-428h-344v551q0 135 -33 182q-30 49 -111 49q-101 0 -141 -67q-39 -68 -39 -287v-428h-346v1010h350v-176q64 106 146 157q80 51 194 51q123 0 203 -47q76 -48 111 -143q61 99 145 143
q83 47 199 47q91 0 159 -30q70 -33 115 -92q38 -47 53 -111q15 -59 15 -209v-22v-578h-355z" />
    <glyph glyph-name="n" unicode="n" horiz-adv-x="1337" 
d="M131 0v1010h326v-205q69 120 164 180q92 57 223 57q99 0 176 -30q76 -34 123 -92q43 -58 57 -123q17 -83 17 -219v-578h-357v541q0 123 -39 176q-39 55 -127 55q-110 0 -162 -82q-51 -82 -51 -266v-424h-350z" />
    <glyph glyph-name="o" unicode="o" horiz-adv-x="1276" 
d="M848 502q0 113 -57 178q-59 65 -154 65q-98 0 -154 -65q-57 -63 -57 -178q0 -112 55 -176q60 -66 156 -66t156 66q55 66 55 176zM1202 502q0 -111 -43 -207q-45 -102 -123 -176q-88 -82 -182 -119q-98 -39 -217 -39q-120 0 -217 39q-99 39 -182.5 118.5t-120.5 176.5
q-43 93 -43 207q0 111 43 209q40 99 121 176q79 76 182 117q98 38 217 38q118 0 217 -38q103 -41 182 -117q83 -75 123 -176q43 -98 43 -209z" />
    <glyph glyph-name="p" unicode="p" horiz-adv-x="1352" 
d="M449 502q0 -118 63 -187q58 -67 168 -67q109 0 170 67q61 70 61 187q0 119 -61 186q-62 68 -170 68q-109 0 -168 -68q-63 -66 -63 -186zM133 -446v1454h328v-168q65 97 153 151q83 49 189 49q107 0 192 -35.5t148 -107.5q125 -143 125 -395q0 -242 -125 -391
q-64 -76 -144.5 -113t-183.5 -37q-129 0 -209 47q-77 45 -143 156q5 -24 8 -74q2 -29 2 -106v-430h-340z" />
    <glyph glyph-name="q" unicode="q" horiz-adv-x="1352" 
d="M903 502q0 116 -61 186q-65 68 -172 68q-108 0 -170 -68t-62 -186q0 -116 62 -187q61 -67 170 -67q108 0 172 67q61 70 61 187zM1219 -446h-342v430q0 36 4 98q3 54 8 82q-67 -112 -144 -156q-83 -47 -208 -47q-201 0 -326 150q-127 151 -127 391q0 250 127 395
q64 73 148 108t190 35t188 -49q88 -53 154 -151v168l328 2v-1456z" />
    <glyph glyph-name="r" unicode="r" horiz-adv-x="915" 
d="M133 0v1010h336v-238q53 131 141 195q91 65 219 65q29 0 43 -2q11 -1 20 -1.5t23 -2.5l-34 -324q-37 12 -64 17q-40 4 -59 4q-130 0 -201 -80q-70 -79 -70 -225v-418h-354z" />
    <glyph glyph-name="s" unicode="s" horiz-adv-x="991" 
d="M37 84l74 272q78 -69 172 -104q93 -37 188 -37q68 0 102 23q35 21 35 61q0 67 -141 100q-49 11 -74 19q-163 48 -231 117q-74 71 -74 184q0 146 111 235q107 88 299 88q93 0 198 -22q88 -18 205 -70l-74 -245q-72 49 -145 73q-69 25 -145 25q-62 0 -93 -19
q-30 -18 -30 -55q0 -52 141 -90q46 -14 47 -14q184 -52 258 -123q72 -75 72 -195q0 -155 -119 -250q-122 -96 -315 -96q-134 0 -246.5 30.5t-214.5 92.5z" />
    <glyph glyph-name="t" unicode="t" horiz-adv-x="723" 
d="M188 0l-2 758h-151v252h151v301h353v-301h149v-252h-149v-758h-351z" />
    <glyph glyph-name="u" unicode="u" horiz-adv-x="1292" 
d="M1167 1010v-516q0 -173 -26 -252q-28 -82 -94 -148q-63 -66 -166 -100q-98 -33 -236 -33q-137 0 -233 33q-99 32 -170 100q-65 62 -92 146q-27 78 -27 254v516h340v-539q0 -127 43 -182q39 -58 135 -58q95 0 136.5 56t41.5 184v539h348z" />
    <glyph glyph-name="v" unicode="v" horiz-adv-x="1155" 
d="M436 0l-454 1010h380l173 -447q2 -4 6 -16q27 -74 41 -141q10 54 39 131q4 8 10 26l172 447h371l-459 -1010h-279z" />
    <glyph glyph-name="w" unicode="w" horiz-adv-x="1645" 
d="M930 1010l149 -447q0 -4 2 -8q34 -89 43 -149q3 14 17 67q13 50 26 90l152 447h369l-424 -1010h-252l-150 457q-8 26 -20 80q-6 26 -10 42t-9 35q-15 -76 -39 -151l-2 -6l-149 -457h-252l-422 1010h367l151 -447q10 -32 16.5 -50t10.5 -36q11 -45 16 -71q8 47 39 139
q3 12 6 18l150 447h215z" />
    <glyph glyph-name="x" unicode="x" horiz-adv-x="1085" 
d="M485 838q27 -53 33 -70.5t11 -32t6 -18.5q3 12 16 51q12 31 33 70l96 172h403l-346 -469l404 -541h-402l-151 254q-15 23 -31 59q-3 11 -8 29t-10 33q-13 -44 -21 -62q-10 -30 -29 -59l-149 -254h-395l397 541l-340 469h389z" />
    <glyph glyph-name="y" unicode="y" horiz-adv-x="1090" 
d="M76 -446l284 600l-407 856h395l141 -365q21 -50 29 -86q11 -37 19 -74q6 36 18 76q8 35 29 84l143 365h381l-635 -1456h-397z" />
    <glyph glyph-name="z" unicode="z" horiz-adv-x="1110" 
d="M1024 0h-1024l518 750h-455v260h1006l-537 -736h492v-274z" />
    <glyph glyph-name="braceleft" unicode="{" horiz-adv-x="1024" 
d="M893 1477v-242q-10 0 -21 2h-20q-98 0 -131 -35q-35 -37 -35 -147v-240q0 -141 -45 -201q-47 -59 -166 -84q119 -24 166 -81q45 -57 45 -201v-242q0 -112 35 -145q33 -35 129 -35q12 0 22 2h21v-242q-23 0 -41 -2h-41q-110 0 -178 13q-75 12 -121 36q-62 33 -82 88
q-24 58 -24 193v256q0 133 -50 188q-49 54 -168 54h-18q-8 -2 -18 -2v241q10 0 18 -2h18q117 0 167.5 55.5t50.5 188.5v254q0 137 24 194q24 58 82 89q46 24 121 36q68 13 180 13h39q18 -2 41 -2z" />
    <glyph glyph-name="bar" unicode="|" horiz-adv-x="1024" 
d="M393 1565h240v-2048h-240v2048z" />
    <glyph glyph-name="braceright" unicode="}" horiz-adv-x="1024" 
d="M133 1477q23 0 41 2h39q112 0 180 -13q72 -12 121 -36q57 -31 84 -89q23 -62 23 -194v-254q0 -135 49 -188q48 -56 168 -56h18q8 2 18 2v-241q-10 0 -18 2h-18q-120 0 -168 -56q-49 -55 -49 -186v-256q0 -131 -23 -195q-27 -57 -84 -88q-49 -26 -113 -34
q-68 -13 -178 -13h-45q-18 2 -45 2v242h23q10 -2 20 -2q98 0 131 35q33 32 33 145v242q0 143 45 198q48 60 166 84q-119 25 -166 84q-45 57 -45 201v240q0 113 -33 147q-33 35 -127 35h-22q-11 -2 -25 -2v242z" />
    <glyph glyph-name="asciitilde" unicode="~" horiz-adv-x="1706" 
d="M1530 819v-254q-101 -70 -195 -102q-93 -35 -182 -35q-49 0 -88 8q-47 6 -84 21q-5 1 -39 12q-259 90 -381 90q-86 0 -176 -37q-100 -44 -207 -121v254q121 75 207 109q102 35 180 35q65 0 127 -13q75 -14 168 -45q16 -7 51 -16q156 -57 248 -57q87 0 174 37
q84 31 197 114z" />
    <glyph glyph-name="Zcaron" horiz-adv-x="1386" 
d="M1298 0h-1294l739 1147h-593v317h1232l-737 -1145h653v-319zM465 1864l160 -279h247l164 279h-137l-147 -144l-150 144h-137z" />
    <glyph glyph-name="ogonek" 
 />
    <glyph glyph-name="caron" horiz-adv-x="2" 
d="M-788 1116l159 -278h248l164 278h-137l-148 -143l-149 143h-137z" />
    <glyph glyph-name="Lslash" horiz-adv-x="1120" 
d="M186 0v500l-125 -86l-135 219l260 180v651h400v-422l198 140l146 -213l-344 -240v-387h495v-342h-895z" />
    <glyph glyph-name="ordmasculine" horiz-adv-x="956" 
d="M637 1110q0 79 -43 125q-42 45 -117 45q-76 0 -115 -45q-43 -48 -43 -125q0 -76 41 -125q42 -45 117 -45q77 0 119 45q41 47 41 125zM901 1110q0 -79 -31 -145q-30 -67 -92 -123q-61 -55 -137 -82q-78 -29 -164 -29q-83 0 -162 29q-76 27 -137 82q-57 51 -92 123
q-31 70 -31 145t31 145q30 67 92 123q63 57 135 82q74 27 164 27q92 0 164 -27q75 -27 137 -82.5t92 -122.5q31 -69 31 -145z" />
    <glyph glyph-name="fraction" horiz-adv-x="342" 
d="M-342 -39l836 1518h188l-840 -1518h-184z" />
    <glyph glyph-name="breve" horiz-adv-x="1024" 
d="M197 1485h131q6 -72 51 -105q48 -34 133 -34t133 34q46 34 49 105h131q-12 -161 -88 -234t-225 -73q-152 0 -227 75q-79 79 -88 232z" />
    <glyph glyph-name="dotlessi" horiz-adv-x="639" 
d="M141 0v1010h357v-1010h-357z" />
    <glyph glyph-name="dotlessi" unicode="&#x131;" horiz-adv-x="639" 
d="M141 0v1010h357v-1010h-357z" />
    <glyph glyph-name="zcaron" horiz-adv-x="1110" 
d="M1024 0h-1024l518 750h-455v260h1006l-537 -736h492v-274zM266 1413l160 -278h248l164 278h-138l-147 -143l-150 143h-137z" />
    <glyph glyph-name="Ydieresis" horiz-adv-x="1223" 
d="M416 0v668l-512 796h458l197 -377q3 -3 6 -12q31 -57 43 -112q9 48 43 108l8 16l195 377h459l-512 -796v-668h-385zM662 1712q0 52 35.5 87.5t88.5 35.5t91 -35q34 -34 34 -88t-34 -90.5t-91 -36.5q-56 0 -90 36.5t-34 90.5zM311 1712v-2q0 51 37 88q38 35 90 35
q55 0 88 -35q35 -33 35 -88q0 -58 -33 -90q-33 -35 -90 -35q-56 0 -90 37q-37 35 -37 90z" />
    <glyph glyph-name="Ydieresis" unicode="&#x178;" horiz-adv-x="1223" 
d="M416 0v668l-512 796h458l197 -377q3 -3 6 -12q31 -57 43 -112q9 48 43 108l8 16l195 377h459l-512 -796v-668h-385zM662 1712q0 52 35.5 87.5t88.5 35.5t91 -35q34 -34 34 -88t-34 -90.5t-91 -36.5q-56 0 -90 36.5t-34 90.5zM311 1712v-2q0 51 37 88q38 35 90 35
q55 0 88 -35q35 -33 35 -88q0 -58 -33 -90q-33 -35 -90 -35q-56 0 -90 37q-37 35 -37 90z" />
    <glyph glyph-name="fl" unicode="&#xa0;" horiz-adv-x="1346" 
d="M848 0v1550h356v-1550h-356zM166 0v758h-152v252h152v207q0 175 96 266q95 88 287 88q13 0 65 -4q56 -9 80 -15v-272q-18 7 -45 14q-28 4 -37 4q-52 0 -73 -30q-23 -32 -23 -97v-161h178v-252h-178v-758h-350z" />
    <glyph glyph-name="exclamdown" unicode="&#xa1;" horiz-adv-x="702" 
d="M166 1006h371v-1045h-371v1045zM150 1329q0 85 59 144q61 59 141 59q83 0 144 -59q59 -61 59 -144q0 -86 -57 -143q-60 -60 -146 -60q-84 0 -141 60q-59 59 -59 143z" />
    <glyph glyph-name="cent" unicode="&#xa2;" horiz-adv-x="1280" 
d="M977 887q-55 49 -103 69q-42 21 -98 21q-107 0 -168 -70q-63 -69 -63 -192q0 -116 65 -187q63 -69 174 -69q59 0 103 20q48 23 90 68v-309q-55 -28 -107 -43q-57 -18 -104 -21v-203h-115v203q-227 41 -340 178q-116 134 -116 361q0 217 122 362q61 73 144.5 116t189.5 60
v170h115v-168q67 -7 113 -20q49 -14 98 -43v-303z" />
    <glyph glyph-name="sterling" unicode="&#xa3;" horiz-adv-x="1280" 
d="M127 764h162q-56 77 -82 151q-27 71 -27 158q0 178 139 293q141 113 365 113q235 0 365 -121q127 -121 133 -350h-344q-3 93 -41 141q-41 47 -119 47q-66 0 -107 -41q-39 -40 -39 -104q0 -48 62 -172q35 -77 51 -115h334v-141h-315q0 -91 -41 -156q-44 -66 -131 -98
l4 -21q3 1 9.5 1.5l13 1t9.5 1.5q11 2 33 2q61 0 148 -26q90 -29 127 -29q50 0 82 23q34 22 61 77l240 -190q-52 -123 -148 -184q-94 -64 -229 -64q-94 0 -230.5 51t-187.5 51q-45 0 -84 -20q-31 -16 -78 -70l-180 222q55 76 111 114q53 38 124 47q30 36 45 76q15 37 15 86
q0 13 -4 45q-3 26 -13 60h-233v141z" />
    <glyph glyph-name="currency" unicode="&#xa4;" horiz-adv-x="1241" 
d="M623 1145q-107 0 -185 -78q-76 -76 -76 -182q0 -108 76 -185q75 -75 185 -75q109 0 184 75q76 77 76 185q0 106 -76 182q-78 78 -184 78zM178 1444l203 -201q51 36 115 55q57 19 125 19q71 0 131 -19q61 -19 112 -55l201 201l119 -117l-201 -205q35 -53 52.5 -112.5
t17.5 -124.5t-17 -125q-19 -61 -53 -113l201 -203l-119 -118l-201 202q-56 -38 -110 -55q-61 -18 -131 -18q-68 0 -127 18q-58 15 -115 55l-203 -202l-117 118l201 203q-38 56 -53 113q-19 62 -19 125q0 65 19 127q15 50 53 110l-201 205z" />
    <glyph glyph-name="yen" unicode="&#xa5;" horiz-adv-x="1161" 
d="M156 0v1464h897v-321h-508v-254h479v-314h-479v-247h508v-328h-897zM309 1526l160 278h248l164 -278h-138l-147 143l-150 -143h-137z" />
    <glyph glyph-name="brokenbar" unicode="&#xa6;" horiz-adv-x="1024" 
d="M393 408h240v-758h-240v758zM393 1432h240v-758h-240v758z" />
    <glyph glyph-name="section" unicode="&#xa7;" horiz-adv-x="1219" 
d="M283 844q-73 31 -113 100q-39 62 -39 164q0 89 33.5 160t99.5 125q134 106 361 106q226 0 354 -108q123 -111 129 -316h-371v21q0 66 -37 102q-36 37 -102 37q-64 0 -100 -37q-39 -35 -39 -98q0 -110 192 -131q71 -11 86 -13q221 -33 318 -133q96 -99 96 -286
q0 -126 -53 -209q-56 -85 -162 -123q79 -39 115 -101q36 -64 36 -163q0 -176 -133 -285q-136 -109 -360 -109q-229 0 -354 113q-126 114 -129 324h370v-23q0 -68 35 -111q37 -38 105 -38q61 0 102 36q37 37 37 99q0 111 -197 135q-28 3 -43.5 5.5t-38.5 4.5
q-222 35 -317 133q-98 101 -98 289q0 126 57 209q57 84 160 121zM612 707q-77 0 -127.5 -50.5t-50.5 -128.5q0 -83 49 -137q50 -53 123 -53q76 0 129 53q51 51 51 129q0 82 -51 133q-51 54 -123 54z" />
    <glyph glyph-name="dieresis" unicode="&#xa8;" horiz-adv-x="1024" 
d="M563 1333q0 56 43 101q43 41 101 41q56 0 102 -41q41 -41 41 -101q0 -63 -41 -102q-40 -43 -102 -43q-63 0 -103 43q-41 41 -41 102zM172 1333q0 58 43 101q46 41 102 41q58 0 101 -41q41 -43 41 -101q0 -65 -39 -104q-41 -41 -103 -41t-102 43q-43 39 -43 102z" />
    <glyph glyph-name="copyright" unicode="&#xa9;" horiz-adv-x="1706" 
d="M1221 891h-213q-6 66 -47 104q-40 37 -109 37q-82 0 -129 -78q-47 -77 -47 -215q0 -143 49 -213q47 -71 137 -71q66 0 107 41q39 39 45 114h215q-6 -144 -107 -229q-100 -88 -264 -88q-191 0 -301 119q-111 115 -111 319q0 207 111 330q112 121 299 121q158 0 256 -80
q98 -77 109 -211zM854 1350q-128 0 -236 -45q-114 -50 -194 -134q-90 -90 -135 -200q-47 -115 -47 -234q0 -117 47 -229q42 -106 135 -201q85 -85 199 -133q111 -47 231 -47q119 0 233 47q115 47 203 135q86 83 129 193q45 103 45 235q0 129 -45 236q-45 112 -131 196
q-88 89 -198 136q-111 45 -236 45zM852 1485q150 0 291 -55q136 -59 241 -164q107 -107 160 -240q55 -134 55 -289t-55 -286q-52 -135 -158 -238q-104 -105 -247 -166q-134 -57 -287 -57q-151 0 -283 57q-140 59 -243 164q-111 111 -164 242q-58 134 -58 284q0 143 60 285
q55 137 164 246q102 105 237 162q134 55 287 55z" />
    <glyph glyph-name="ordfeminine" unicode="&#xaa;" horiz-adv-x="1014" 
d="M676 1112q0 79 -47 131q-47 47 -129 47t-127 -47q-47 -50 -47 -131q0 -84 47 -131q45 -47 127 -47t129 47q47 49 47 131zM911 1464v-706h-245v114q-52 -73 -117 -106q-65 -35 -156 -35q-152 0 -241 105q-93 100 -93 274q0 175 95 274q95 103 256 103q87 0 149 -35
q61 -33 105 -104v116h247z" />
    <glyph glyph-name="guillemotleft" unicode="&#xab;" horiz-adv-x="1753" 
d="M1659 729q0 -159 -57 -297q-57 -135 -170 -246q-112 -108 -256 -166q-151 -59 -299 -59q-150 0 -299 59q-147 59 -254 166q-108 103 -170 248q-60 142 -60 295t60 295q62 145 170 248q110 110 254 168q140 57 299 57t301 -57.5t253.5 -167.5t170.5 -248q57 -138 57 -295z
M877 299q165 0 276 123q55 61 81 137t26 170q0 183 -109 307q-111 123 -274 123q-167 0 -275 -123t-108 -307q0 -191 106 -309q109 -121 277 -121zM600 1559l160 278h248l163 -278h-137l-147 143l-150 -143h-137z" />
    <glyph glyph-name="logicalnot" unicode="&#xac;" horiz-adv-x="1706" 
d="M254 866h1198v-501h-229v274h-969v227z" />
    <glyph glyph-name="minus" unicode="&#xad;" horiz-adv-x="934" 
d="M127 340v326h680v-326h-680z" />
    <glyph glyph-name="registered" unicode="&#xae;" horiz-adv-x="1706" 
d="M762 1022v-219h80q75 0 110 26q37 28 37 80q0 60 -39 86q-34 27 -121 27h-67zM537 1163h329q175 0 264 -59q91 -62 91 -178q0 -81 -45 -140q-46 -57 -129 -81l182 -361h-248l-154 326h-65v-326h-225v819zM854 1350q-122 0 -231 -43q-48 -20 -100.5 -54t-94.5 -75
q-93 -94 -137 -203q-47 -115 -47 -238q0 -124 45 -229q42 -108 129 -195q90 -90 198 -139q115 -47 236 -47q124 0 233 45q112 47 199 131q85 79 133 197q47 111 47 237q0 127 -45 234q-43 108 -127 194q-90 91 -200 138q-116 47 -238 47zM852 1485q158 0 295 -58
q134 -55 244 -167q103 -108 155 -238q53 -133 53 -285q0 -158 -57 -291q-56 -138 -164 -239q-103 -102 -245 -162q-135 -55 -281 -55q-155 0 -287 57q-135 57 -243 170q-106 106 -160 242q-58 131 -58 278t60 288.5t170 248.5q106 106 237 158q137 53 281 53z" />
    <glyph glyph-name="macron" unicode="&#xaf;" horiz-adv-x="1024" 
d="M205 1247v168h614v-168h-614z" />
    <glyph glyph-name="ring" unicode="&#xb0;" horiz-adv-x="1024" 
d="M397 1399q0 -47 33 -80q35 -35 82 -35t82 35q33 33 33 80t-33 82q-33 32 -82 32t-82 -32q-33 -34 -33 -82zM242 1399q0 116 80 192q76 80 190 80q116 0 193 -80q79 -79 79 -192t-79 -193q-80 -78 -193 -78t-193 78q-77 77 -77 193z" />
    <glyph glyph-name="plusminus" unicode="&#xb1;" horiz-adv-x="1753" 
d="M1659 729l-2 2q0 -160 -58 -297q-55 -134 -169 -246q-113 -108 -256 -165q-149 -60 -300 -60q-150 0 -299 60q-146 58 -253 165q-111 105 -170.5 247.5t-59.5 295.5t60 295q59 143 170 248q107 109 253 168q142 57 299 57q160 0 302 -57q145 -59 254 -168
q77 -71 118 -160q55 14 88 51t48.5 105t15.5 172v57h147q-3 -259 -71.5 -367t-173.5 -108q57 -138 57 -295zM874 301q166 0 277 123q106 118 106 307q0 184 -108 307q-111 123 -275 123q-166 0 -274 -123t-108 -307q0 -191 106 -309q109 -121 276 -121z" />
    <glyph glyph-name="twosuperior" unicode="&#xb2;" horiz-adv-x="846" 
d="M764 575h-737l432 467q42 47 59 78q19 36 19 64q0 47 -31 76q-36 28 -86 28q-61 0 -94 -37q-33 -32 -33 -102v-12h-234v6q0 149 97 235q93 86 262 86q163 0 260 -75q96 -79 96 -203q0 -61 -31 -119q-27 -58 -100 -131l-176 -174h297v-187z" />
    <glyph glyph-name="threesuperior" unicode="&#xb3;" horiz-adv-x="846" 
d="M55 866h246v-14q0 -59 31 -86q27 -31 86 -31t94 29q31 28 31 82q0 61 -35 90q-37 29 -109 29h-16q-8 0 -12 -2v141h12q70 0 102 26q37 28 37 76q0 38 -28 68q-31 24 -78 24q-51 0 -78.5 -24.5t-30.5 -69.5h-233q3 122 96 191q91 67 258 67q148 0 231 -59q86 -61 86 -166
q0 -68 -38 -113q-41 -46 -115 -67q89 -15 139 -74q51 -54 51 -143q0 -132 -100 -207q-100 -80 -260 -80q-168 0 -268 82q-99 82 -99 223v8z" />
    <glyph glyph-name="acute" unicode="&#xb4;" horiz-adv-x="1024" 
d="M801 1497l-309 -350h-154l182 350h281z" />
    <glyph glyph-name="mu" unicode="&#xb5;" horiz-adv-x="1315" 
d="M193 1090h358l-80 -529q-4 -24 -8 -78q-4 -48 -4 -65q0 -86 37 -127q33 -43 106 -43q89 0 139 68.5t74 220.5l88 553h357l-175 -1090h-321l18 125q-37 -72 -90 -109q-48 -32 -119 -32q-59 0 -106 30q-45 31 -78 90l-82 -532h-352z" />
    <glyph glyph-name="paragraph" unicode="&#xb6;" horiz-adv-x="1024" 
d="M997 1479v-123h-106v-1356h-176v1356h-150v-1356h-174v784q-164 6 -262 101q-100 93 -100 245q0 161 106 254q55 49 125 72t158 23h579z" />
    <glyph glyph-name="periodcentered" unicode="&#xb7;" horiz-adv-x="1597" 
d="M145 1464h400v-712q0 -163 8 -226q10 -75 27 -114q21 -57 79 -84q58 -31 140 -31q81 0 139 31q53 26 80 84q16 40 26 114q9 60 9 226v100v612h397v-366q54 14 77 77.5t23 206.5q0 24 -0.5 40.5t-1.5 35.5h148q-3 -259 -71.5 -367t-174.5 -108v-293q0 -238 -29 -354
q-27 -115 -98 -197q-78 -91 -207 -133q-128 -45 -317 -45q-193 0 -318 45q-127 42 -207 133q-69 80 -98 197q-31 118 -31 354v152v622z" />
    <glyph glyph-name="periodcentered" unicode="&#x2219;" horiz-adv-x="1597" 
d="M145 1464h400v-712q0 -163 8 -226q10 -75 27 -114q21 -57 79 -84q58 -31 140 -31q81 0 139 31q53 26 80 84q16 40 26 114q9 60 9 226v100v612h397v-366q54 14 77 77.5t23 206.5q0 24 -0.5 40.5t-1.5 35.5h148q-3 -259 -71.5 -367t-174.5 -108v-293q0 -238 -29 -354
q-27 -115 -98 -197q-78 -91 -207 -133q-128 -45 -317 -45q-193 0 -318 45q-127 42 -207 133q-69 80 -98 197q-31 118 -31 354v152v622z" />
    <glyph glyph-name="cedilla" unicode="&#xb8;" horiz-adv-x="1024" 
d="M272 -440v139q105 -27 150 -33q70 -12 121 -12q44 0 65 18q21 15 21 54q0 31 -29 49q-25 14 -90 14h-33q-8 -2 -22 -2v213h114v-84h19q112 0 170 -49q59 -50 59 -143q0 -101 -65 -154q-67 -55 -189 -55q-61 0 -135 12q-63 8 -156 33z" />
    <glyph glyph-name="onesuperior" unicode="&#xb9;" horiz-adv-x="846" 
d="M324 575v672h-207l112 199h334v-871h-239z" />
    <glyph glyph-name="degree" unicode="&#xba;" horiz-adv-x="674" 
d="M338 1321q-70 0 -117 -47q-49 -49 -49 -117q0 -69 47 -119q52 -47 119 -47q66 0 117 49q47 52 47 117t-47 117q-50 47 -117 47zM338 1466q131 0 219 -92q92 -89 92 -219t-92 -219q-88 -92 -221 -92q-131 0 -219 92q-90 88 -90 219q0 133 92 221q88 90 219 90z" />
    <glyph glyph-name="guillemotright" unicode="&#xbb;" horiz-adv-x="1114" 
d="M709 991l360 -489l-360 -488l-191 140l262 348l-262 356zM236 991l358 -489l-358 -488l-191 140l262 348l-262 356z" />
    <glyph glyph-name="onequarter" unicode="&#xbc;" horiz-adv-x="1956" 
d="M1604 346v238q0 49 2 61q0 11 4 31q-13 -27 -27 -47q-11 -21 -37 -54l-168 -229h226zM1604 0v184h-420v162l344 469h284v-469h103v-162h-103v-184h-208zM465 -39l835 1518h189l-840 -1518h-184zM309 633v627h-196l108 184h318v-811h-230z" />
    <glyph glyph-name="onehalf" unicode="&#xbd;" horiz-adv-x="1352" 
d="M903 504q0 119 -61 186q-65 68 -172 68q-108 0 -170 -68t-62 -186q0 -119 62 -187q61 -67 170 -67q108 0 172 67q61 67 61 187zM1219 1550v-235h131v-115h-131v-1202h-328v164q-68 -103 -154 -152q-80 -51 -188 -51q-212 0 -338 147q-127 150 -127 396q0 240 127 391
q126 147 326 147q128 0 208 -47q77 -43 144 -153q-4 27 -8 82q-4 60 -4 98v180h-373v115h373v235h342z" />
    <glyph glyph-name="threequarters" unicode="&#xbe;" horiz-adv-x="1956" 
d="M1604 346v238q0 49 2 61q0 11 4 31q-13 -27 -27 -47q-11 -21 -37 -54l-168 -229h226zM1604 0v184h-420v162l344 469h284v-469h103v-162h-103v-184h-208zM465 -39l835 1518h189l-840 -1518h-184zM53 905h234v-14q0 -52 28 -80q31 -29 84 -29q58 0 88 27q31 27 31 76
q0 57 -33 84q-32 26 -104 26h-16q-5 -2 -11 -2v133h13q62 0 98 25q33 24 33 72q0 36 -29 59q-28 25 -74 25q-43 0 -73 -23q-27 -23 -27 -65h-223q3 115 90 180q88 61 246 61q140 0 223 -55q80 -59 80 -156q0 -59 -37 -104q-35 -40 -109 -64q90 -15 135 -65q48 -54 48 -137
q0 -118 -97 -195q-95 -74 -248 -74q-158 0 -256 78q-94 76 -94 209v8z" />
    <glyph glyph-name="questiondown" unicode="&#xbf;" horiz-adv-x="1239" 
d="M834 1329q0 -83 -60 -143t-143 -60q-84 0 -144 60q-57 58 -57 143q0 87 57 146q58 57 144 57q82 0 142.5 -59.5t60.5 -143.5zM446 997h347v-413h-107q-113 0 -172 -45q-61 -46 -61 -136q0 -69 47 -114q45 -47 110 -47q72 0 111 39q40 35 43 108h342v-4q0 -195 -139 -313
q-139 -117 -373 -117q-212 0 -340 125q-131 122 -131 323q0 163 90 273q90 105 233 108v213z" />
    <glyph glyph-name="Agrave" unicode="&#xc0;" horiz-adv-x="1479" 
d="M543 547h397l-149 483q-5 13 -19 72q-17 69 -31 125q-14 -51 -24 -103q-16 -50 -27 -94zM-16 0l505 1464h500l506 -1464h-397l-74 262h-567l-76 -262h-397zM508 1855h223l146 -278h-123z" />
    <glyph glyph-name="Aacute" unicode="&#xc1;" horiz-adv-x="1479" 
d="M543 547h397l-149 483q-5 13 -19 72q-17 69 -31 125q-14 -51 -24 -103q-16 -50 -27 -94zM-16 0l505 1464h500l506 -1464h-397l-74 262h-567l-76 -262h-397zM977 1845l-246 -278h-123l146 278h223z" />
    <glyph glyph-name="Acircumflex" unicode="&#xc2;" horiz-adv-x="1479" 
d="M543 547h397l-149 483q-5 13 -19 72q-17 69 -31 125q-14 -51 -24 -103q-16 -50 -27 -94zM-16 0l505 1464h500l506 -1464h-397l-74 262h-567l-76 -262h-397zM449 1526l159 278h248l164 -278h-137l-148 143l-149 -143h-137z" />
    <glyph glyph-name="Atilde" unicode="&#xc3;" horiz-adv-x="1479" 
d="M543 547h397l-149 483q-5 13 -19 72q-17 69 -31 125q-14 -51 -24 -103q-16 -50 -27 -94zM-16 0l505 1464h500l506 -1464h-397l-74 262h-567l-76 -262h-397zM987 1798l-4 -4q-24 -102 -63 -147q-41 -50 -107 -50h-29h-24l-74 21q-34 10 -49 10q-24 0 -39 -12
q-12 -12 -27 -49h-94q23 102 62 147q39 49 104 49h27q15 0 41 -6l73 -20h21h24q27 0 41 14q17 15 23 47h94z" />
    <glyph glyph-name="Adieresis" unicode="&#xc4;" horiz-adv-x="1479" 
d="M543 547h397l-149 483q-5 13 -19 72q-17 69 -31 125q-14 -51 -24 -103q-16 -50 -27 -94zM-16 0l505 1464h500l506 -1464h-397l-74 262h-567l-76 -262h-397zM776 1710q0 52 37 88q35 35 88 35t90 -35q35 -33 35 -88q0 -57 -35 -90q-33 -37 -90 -37q-56 0 -90 37
q-35 33 -35 90zM426 1710v-2q0 52 37 87.5t90 35.5t88 -35q35 -33 35 -88q0 -58 -33 -90q-33 -35 -90 -35t-90 37q-37 33 -37 90z" />
    <glyph glyph-name="Aring" unicode="&#xc5;" horiz-adv-x="1479" 
d="M543 547h397l-149 483q-5 13 -19 72q-17 69 -31 125q-14 -51 -24 -103q-16 -50 -27 -94zM-16 0l505 1464h500l506 -1464h-397l-74 262h-567l-76 -262h-397zM674 1772h-2q0 -33 22 -56q25 -24 58 -24q31 0 55 24q22 23 22 56q0 32 -22 54.5t-55 22.5t-56 -22
q-22 -23 -22 -55zM555 1772q0 87 57 141q54 57 140 57q87 0 141 -57q57 -57 57 -141q0 -85 -57 -142q-55 -55 -141 -55q-87 0 -142 55t-55 142z" />
    <glyph glyph-name="AE" unicode="&#xc6;" 
d="M-430 2109l-246 -278h-123l146 278h223z" />
    <glyph glyph-name="Ccedilla" unicode="&#xc7;" horiz-adv-x="1286" 
d="M1217 1407v-436q-86 93 -162 135q-85 41 -176 41q-171 0 -279 -117q-37 -42 -60 -87.5t-34.5 -103t-11.5 -116.5q0 -176 108 -293q109 -115 277 -115q90 0 176 43q76 39 162 134v-437q-111 -52 -189 -69q-97 -23 -190 -23q-118 0 -222 28.5t-186 86.5q-164 112 -250 276
q-86 170 -86 377q0 166 56 305q25 67 63.5 126.5t99.5 123.5q105 108 236 160q130 53 289 53q91 0 190 -22q98 -26 189 -70zM500 -432l-8 125q90 -23 131 -27q55 -8 106 -8q38 0 55 14q17 12 17 45q0 29 -25 41q-20 11 -80 11h-26h-17v190h103v-74h16q100 0 152 -43
q53 -44 53 -125q0 -88 -55 -135q-58 -49 -166 -49q-62 0 -119 8q-44 4 -137 27z" />
    <glyph glyph-name="Egrave" unicode="&#xc8;" horiz-adv-x="1161" 
d="M156 0v1464h897v-321h-508v-254h479v-314h-479v-247h508v-328h-897zM371 1845h223l145 -278h-123z" />
    <glyph glyph-name="Eacute" unicode="&#xc9;" horiz-adv-x="1161" 
d="M156 0v1464h897v-321h-508v-254h479v-314h-479v-247h508v-328h-897zM870 1845l-245 -278h-123l145 278h223z" />
    <glyph glyph-name="Ecircumflex" unicode="&#xca;" horiz-adv-x="1161" 
d="M156 0v1464h897v-321h-508v-254h479v-314h-479v-247h508v-328h-897zM309 1526l160 278h248l164 -278h-138l-147 143l-150 -143h-137z" />
    <glyph glyph-name="Edieresis" unicode="&#xcb;" horiz-adv-x="1161" 
d="M156 0v1464h897v-321h-508v-254h479v-314h-479v-247h508v-328h-897zM637 1690q0 51 37 88q34 34 88 34q51 0 90 -34q35 -37 35 -88q0 -54 -35 -91q-34 -36 -90 -36q-57 0 -90 36q-35 35 -35 91zM287 1690v-2q0 51 37 88q37 34 90 34q52 0 88 -34q35 -37 35 -88
q0 -56 -33 -91q-36 -34 -90 -34q-57 0 -90 36q-37 34 -37 91z" />
    <glyph glyph-name="Igrave" unicode="&#xcc;" horiz-adv-x="735" 
d="M166 0v1464h403v-1464h-403zM164 1876h223l145 -279h-122z" />
    <glyph glyph-name="Iacute" unicode="&#xcd;" horiz-adv-x="735" 
d="M166 0v1464h403v-1464h-403zM592 1855l-246 -278h-123l146 278h223z" />
    <glyph glyph-name="Icircumflex" unicode="&#xce;" horiz-adv-x="735" 
d="M166 0v1464h403v-1464h-403zM53 1587l160 279h248l164 -279h-138l-147 144l-150 -144h-137z" />
    <glyph glyph-name="Idieresis" unicode="&#xcf;" horiz-adv-x="735" 
d="M166 0v1464h403v-1464h-403zM412 1710q0 52 37 88q33 35 88 35q52 0 90 -35q35 -35 35 -88q0 -55 -35 -90q-34 -37 -90 -37q-57 0 -91 37q-34 34 -34 90zM61 1710v-2q0 51 37 88q38 35 90 35q55 0 88 -35q35 -33 35 -88q0 -58 -32 -90q-35 -35 -91 -35t-90 37
q-37 34 -37 90z" />
    <glyph glyph-name="Eth" unicode="&#xd0;" horiz-adv-x="1591" 
d="M178 0v614h-178v258h178v592h303q184 0 299 -8t187 -24q142 -32 247 -107q140 -95 211 -248q72 -150 72 -346t-72 -346q-71 -152 -211 -248q-108 -74 -241 -104q-132 -33 -424 -33h-68h-303zM571 328h70q235 0 342 98q109 95 109 305q0 209 -109 307q-108 99 -342 99h-70
v-265h273v-258h-273v-286z" />
    <glyph glyph-name="Ntilde" unicode="&#xd1;" horiz-adv-x="1745" 
d="M156 0v1464h385l553 -753q21 -31 53 -93q41 -80 80 -165q-15 115 -17 161q-6 72 -6 127v723h383v-1464h-383l-553 756q-12 16 -53 94q-36 64 -80 162q10 -78 19 -162q4 -94 4 -127v-723h-385zM1108 1812l-4 -4q-26 -104 -64 -147q-39 -49 -106 -49h-29h-24l-74 20
q-34 10 -49 10q-24 0 -39 -12q-15 -15 -27 -49h-94q21 100 61 148q41 49 105 49h27q16 0 40 -6l74 -21h21h24q27 0 41 14q17 19 23 47h94z" />
    <glyph glyph-name="Ograve" unicode="&#xd2;" horiz-adv-x="1753" 
d="M1659 729q0 -159 -57 -297q-57 -135 -170 -246q-112 -108 -256 -166q-151 -59 -299 -59q-150 0 -299 59q-147 59 -254 166q-108 103 -170 248q-60 142 -60 295t60 295q62 145 170 248q110 110 254 168q140 57 299 57t301 -57.5t253.5 -167.5t170.5 -248q57 -138 57 -295z
M877 299q165 0 276 123q55 61 81 137t26 170q0 183 -109 307q-111 123 -274 123q-167 0 -275 -123t-108 -307q0 -191 106 -309q109 -121 277 -121zM643 1878h223l146 -279h-123z" />
    <glyph glyph-name="Oacute" unicode="&#xd3;" horiz-adv-x="1753" 
d="M1659 729q0 -159 -57 -297q-57 -135 -170 -246q-112 -108 -256 -166q-151 -59 -299 -59q-150 0 -299 59q-147 59 -254 166q-108 103 -170 248q-60 142 -60 295t60 295q62 145 170 248q110 110 254 168q140 57 299 57t301 -57.5t253.5 -167.5t170.5 -248q57 -138 57 -295z
M877 299q165 0 276 123q55 61 81 137t26 170q0 183 -109 307q-111 123 -274 123q-167 0 -275 -123t-108 -307q0 -191 106 -309q109 -121 277 -121zM1184 1878l-246 -279h-123l146 279h223z" />
    <glyph glyph-name="Ocircumflex" unicode="&#xd4;" horiz-adv-x="1753" 
d="M1659 729q0 -159 -57 -297q-57 -135 -170 -246q-112 -108 -256 -166q-151 -59 -299 -59q-150 0 -299 59q-147 59 -254 166q-108 103 -170 248q-60 142 -60 295t60 295q62 145 170 248q110 110 254 168q140 57 299 57t301 -57.5t253.5 -167.5t170.5 -248q57 -138 57 -295z
M877 299q165 0 276 123q55 61 81 137t26 170q0 183 -109 307q-111 123 -274 123q-167 0 -275 -123t-108 -307q0 -191 106 -309q109 -121 277 -121zM600 1559l160 278h248l163 -278h-137l-147 143l-150 -143h-137z" />
    <glyph glyph-name="Otilde" unicode="&#xd5;" horiz-adv-x="1753" 
d="M1659 729q0 -159 -57 -297q-57 -135 -170 -246q-112 -108 -256 -166q-151 -59 -299 -59q-150 0 -299 59q-147 59 -254 166q-108 103 -170 248q-60 142 -60 295t60 295q62 145 170 248q110 110 254 168q140 57 299 57t301 -57.5t253.5 -167.5t170.5 -248q57 -138 57 -295z
M877 299q165 0 276 123q55 61 81 137t26 170q0 183 -109 307q-111 123 -274 123q-167 0 -275 -123t-108 -307q0 -191 106 -309q109 -121 277 -121zM1133 1831l-5 -4q-24 -104 -63 -148q-41 -49 -107 -49h-28h-25l-74 21q-32 10 -49 10q-22 0 -39 -12q-14 -15 -26 -50h-94
q21 102 61 148q40 49 104 49h27q17 0 41 -6l74 -21h20h25q26 0 41 15q16 16 22 47h95z" />
    <glyph glyph-name="Odieresis" unicode="&#xd6;" horiz-adv-x="1753" 
d="M1659 729q0 -159 -57 -297q-57 -135 -170 -246q-112 -108 -256 -166q-151 -59 -299 -59q-150 0 -299 59q-147 59 -254 166q-108 103 -170 248q-60 142 -60 295t60 295q62 145 170 248q110 110 254 168q140 57 299 57t301 -57.5t253.5 -167.5t170.5 -248q57 -138 57 -295z
M877 299q165 0 276 123q55 61 81 137t26 170q0 183 -109 307q-111 123 -274 123q-167 0 -275 -123t-108 -307q0 -191 106 -309q109 -121 277 -121zM928 1722q0 52 37 88q33 35 88 35q52 0 90 -35q35 -35 35 -88t-35 -90t-90 -37q-56 0 -90 37q-35 35 -35 90zM578 1722v-2
q0 52 36 88q38 35 91 35t88 -35q34 -34 34 -88q0 -57 -32 -90q-37 -35 -90 -35q-56 0 -91 37q-36 34 -36 90z" />
    <glyph glyph-name="multiply" unicode="&#xd7;" horiz-adv-x="1352" 
d="M901 506q0 120 -63 186q-64 70 -172 70t-170 -68q-64 -70 -64 -188q0 -119 64 -187q61 -67 170 -67q108 0 171.5 67t63.5 187zM1214 1010v-1010h-327v164q-71 -105 -158.5 -154t-204.5 -49q-203 0 -323 148q-59 73 -90 172t-31 223q0 248 127 393t340 145q114 0 196 -49
q83 -47 142 -149v166h329zM508 1362h108q3 -56 39 -80q39 -25 105 -25t103.5 24.5t37.5 80.5h105q-11 -128 -70 -184q-31 -29 -76 -43.5t-102 -14.5q-121 0 -180 60q-64 64 -70 182z" />
    <glyph glyph-name="Oslash" unicode="&#xd8;" horiz-adv-x="1753" 
d="M643 403q43 -36 107 -59q57 -18 127 -18q168 0 282 118q117 120 117 293q0 78 -21 133q-18 58 -59 105zM1098 1067q-51 38 -105 53q-54 19 -116 19q-167 0 -281 -117q-117 -120 -117 -291q0 -63 17 -123q14 -53 53 -110zM205 -47l-92 94l170 176q-95 113 -142 240
q-47 132 -47 268q0 153 60 294.5t170 248.5q110 108 258 168q140 57 307 57q140 0 250 -39q115 -40 219 -123l155 162l97 -94l-152 -158q97 -101 150 -235q51 -132 51 -281q0 -153 -60 -295q-57 -137 -169 -248q-114 -109 -252 -165q-144 -58 -301 -58q-140 0 -269 41
q-118 43 -227 129z" />
    <glyph glyph-name="Ugrave" unicode="&#xd9;" horiz-adv-x="1597" 
d="M145 1464h400v-712q0 -163 8 -226q10 -75 27 -114q21 -57 79 -84q58 -31 140 -31q81 0 139 31q53 26 80 84q16 40 26 114q9 60 9 226v100v612h397v-774q0 -238 -29 -354q-27 -115 -98 -197q-78 -91 -207 -133q-128 -45 -317 -45q-193 0 -318 45q-127 42 -207 133
q-69 80 -98 197q-31 118 -31 354v152v622zM502 1845h223l145 -278h-122z" />
    <glyph glyph-name="Uacute" unicode="&#xda;" horiz-adv-x="1597" 
d="M145 1464h400v-712q0 -163 8 -226q10 -75 27 -114q21 -57 79 -84q58 -31 140 -31q81 0 139 31q53 26 80 84q16 40 26 114q9 60 9 226v100v612h397v-774q0 -238 -29 -354q-27 -115 -98 -197q-78 -91 -207 -133q-128 -45 -317 -45q-193 0 -318 45q-127 42 -207 133
q-69 80 -98 197q-31 118 -31 354v152v622zM1104 1845l-246 -278h-123l146 278h223z" />
    <glyph glyph-name="Ucircumflex" unicode="&#xdb;" horiz-adv-x="1597" 
d="M145 1464h400v-712q0 -163 8 -226q10 -75 27 -114q21 -57 79 -84q58 -31 140 -31q81 0 139 31q53 26 80 84q16 40 26 114q9 60 9 226v100v612h397v-774q0 -238 -29 -354q-27 -115 -98 -197q-78 -91 -207 -133q-128 -45 -317 -45q-193 0 -318 45q-127 42 -207 133
q-69 80 -98 197q-31 118 -31 354v152v622zM524 1577l160 278h248l164 -278h-138l-147 143l-149 -143h-138z" />
    <glyph glyph-name="Udieresis" unicode="&#xdc;" horiz-adv-x="1597" 
d="M145 1464h400v-712q0 -163 8 -226q10 -75 27 -114q21 -57 79 -84q58 -31 140 -31q81 0 139 31q53 26 80 84q16 40 26 114q9 60 9 226v100v612h397v-774q0 -238 -29 -354q-27 -115 -98 -197q-78 -91 -207 -133q-128 -45 -317 -45q-193 0 -318 45q-127 42 -207 133
q-69 80 -98 197q-31 118 -31 354v152v622zM842 1710q0 52 37 88q33 35 88 35q52 0 90 -35q35 -35 35 -88q0 -55 -35 -90q-34 -37 -90 -37q-57 0 -90 37q-35 33 -35 90zM492 1710v-2q0 52 36 88q38 35 90 35q54 0 89 -35q34 -34 34 -88q0 -58 -32 -90q-35 -35 -91 -35t-90 37
q-36 33 -36 90z" />
    <glyph glyph-name="Yacute" unicode="&#xdd;" horiz-adv-x="1223" 
d="M416 0v668l-512 796h458l197 -377q3 -3 6 -12q31 -57 43 -112q9 48 43 108l8 16l195 377h459l-512 -796v-668h-385zM905 1845l-246 -278h-122l145 278h223z" />
    <glyph glyph-name="Thorn" unicode="&#xde;" horiz-adv-x="1298" 
d="M530 582h76q145 0 201 39q57 38 57 133q0 91 -55 130.5t-199 39.5h-80v-342zM530 260v-260h-374v1464h374v-223h43q244 0 342 -24q97 -21 170 -82q81 -67 123 -168q43 -101 43 -226q0 -132 -41 -231q-42 -98 -125 -162q-61 -46 -143 -67q-77 -21 -254 -21h-86h-72z" />
    <glyph glyph-name="germandbls" unicode="&#xdf;" horiz-adv-x="1352" 
d="M137 0v1028q0 163 25 244q21 82 78 145q67 73 176 112.5t248 39.5q250 0 389 -103.5t139 -287.5q0 -116 -62 -193q-67 -80 -186 -113q81 -9 143.5 -40t104.5 -82q88 -107 88 -279q0 -234 -141 -365q-145 -129 -404 -129q-30 0 -55 3h-57v266h20q8 -2 33 -2q123 0 186 63
q64 64 64 189q0 119 -68 184q-66 63 -199 63q-8 0 -16 -2h-20v226h8q121 0 178 45q59 45 59 137q0 75 -47 119q-51 43 -131 43q-74 0 -125 -31q-47 -36 -61 -92q-9 -41 -12 -103q-5 -72 -5 -190v-94v-801h-350z" />
    <glyph glyph-name="agrave" unicode="&#xe0;" horiz-adv-x="1352" 
d="M901 506q0 120 -63 186q-64 70 -172 70t-170 -68q-64 -70 -64 -188q0 -119 64 -187q61 -67 170 -67q108 0 171.5 67t63.5 187zM1214 1010v-1010h-327v164q-71 -105 -158.5 -154t-204.5 -49q-203 0 -323 148q-59 73 -90 172t-31 223q0 248 127 393t340 145q114 0 196 -49
q83 -47 142 -149v166h329zM537 1434h223l145 -279h-123z" />
    <glyph glyph-name="aacute" unicode="&#xe1;" horiz-adv-x="1352" 
d="M901 506q0 120 -63 186q-64 70 -172 70t-170 -68q-64 -70 -64 -188q0 -119 64 -187q61 -67 170 -67q108 0 171.5 67t63.5 187zM1214 1010v-1010h-327v164q-71 -105 -158.5 -154t-204.5 -49q-203 0 -323 148q-59 73 -90 172t-31 223q0 248 127 393t340 145q114 0 196 -49
q83 -47 142 -149v166h329zM1036 1434l-245 -279h-123l145 279h223z" />
    <glyph glyph-name="acircumflex" unicode="&#xe2;" horiz-adv-x="1352" 
d="M901 506q0 120 -63 186q-64 70 -172 70t-170 -68q-64 -70 -64 -188q0 -119 64 -187q61 -67 170 -67q108 0 171.5 67t63.5 187zM1214 1010v-1010h-327v164q-71 -105 -158.5 -154t-204.5 -49q-203 0 -323 148q-59 73 -90 172t-31 223q0 248 127 393t340 145q114 0 196 -49
q83 -47 142 -149v166h329zM426 1116l160 279h248l163 -279h-137l-147 144l-150 -144h-137z" />
    <glyph glyph-name="atilde" unicode="&#xe3;" horiz-adv-x="1352" 
d="M901 506q0 120 -63 186q-64 70 -172 70t-170 -68q-64 -70 -64 -188q0 -119 64 -187q61 -67 170 -67q108 0 171.5 67t63.5 187zM1214 1010v-1010h-327v164q-71 -105 -158.5 -154t-204.5 -49q-203 0 -323 148q-59 73 -90 172t-31 223q0 248 127 393t340 145q114 0 196 -49
q83 -47 142 -149v166h329zM1067 1376l-4 -4q-25 -103 -64 -147q-39 -49 -106 -49h-29h-24l-74 20q-34 10 -49 10q-24 0 -39 -12q-14 -14 -27 -49h-94q21 101 61 147q40 49 105 49h27q15 0 41 -6l73 -20h21h24q27 0 41 14q17 15 23 47h94z" />
    <glyph glyph-name="adieresis" unicode="&#xe4;" horiz-adv-x="1352" 
d="M901 506q0 120 -63 186q-64 70 -172 70t-170 -68q-64 -70 -64 -188q0 -119 64 -187q61 -67 170 -67q108 0 171.5 67t63.5 187zM1214 1010v-1010h-327v164q-71 -105 -158.5 -154t-204.5 -49q-203 0 -323 148q-59 73 -90 172t-31 223q0 248 127 393t340 145q114 0 196 -49
q83 -47 142 -149v166h329zM784 1260q0 49 37 88q36 34 88 34q53 0 90 -34q35 -35 35 -88q0 -56 -35 -91q-33 -36 -90 -36q-55 0 -90 36q-35 37 -35 91zM434 1260v-3q0 52 37 89q39 34 90 34q54 0 88 -34q35 -35 35 -89q0 -57 -33.5 -90.5t-89.5 -33.5q-55 0 -90 36
q-37 34 -37 91z" />
    <glyph glyph-name="aring" unicode="&#xe5;" horiz-adv-x="1352" 
d="M901 506q0 120 -63 186q-64 70 -172 70t-170 -68q-64 -70 -64 -188q0 -119 64 -187q61 -67 170 -67q108 0 171.5 67t63.5 187zM1214 1010v-1010h-327v164q-71 -105 -158.5 -154t-204.5 -49q-203 0 -323 148q-59 73 -90 172t-31 223q0 248 127 393t340 145q114 0 196 -49
q83 -47 142 -149v166h329zM631 1341h-2q0 -32 22 -55q25 -24 58 -24q31 0 55 24q22 23 22 55q0 33 -22 55.5t-55 22.5t-56 -22q-22 -23 -22 -56zM512 1341q0 88 57 142q54 57 140 57q87 0 141 -57q57 -57 57 -142q0 -84 -57 -141q-55 -55 -141 -55q-87 0 -142 55t-55 141z
" />
    <glyph glyph-name="ae" unicode="&#xe6;" 
d="M-256 1700l-246 -279h-123l146 279h223z" />
    <glyph glyph-name="ccedilla" unicode="&#xe7;" horiz-adv-x="944" 
d="M856 678q-52 46 -100 67q-43 21 -101 21q-107 0 -168 -70q-63 -69 -63 -190q0 -116 65 -184q63 -70 175 -70q53 0 102 22q52 25 90 66v-309q-64 -34 -129 -54q-69 -16 -131 -16q-234 0 -377 150q-49 50 -80.5 110t-48 130t-16.5 153q0 239 146.5 388.5t379.5 149.5
q73 0 139 -16q64 -16 117 -47v-301zM303 -428l-8 125q90 -23 131 -27q55 -8 106 -8q38 0 56 14q16 12 16 45q0 29 -24 41q-21 11 -80 11h-27h-16v190h102v-74h16q100 0 152 -43q53 -42 53 -125q0 -89 -55 -135q-60 -49 -166 -49q-62 0 -119 8q-44 4 -137 27z" />
    <glyph glyph-name="egrave" unicode="&#xe8;" horiz-adv-x="1251" 
d="M827 635q-9 84 -65 137t-137 53q-85 0 -138 -47q-55 -53 -69 -143h409zM1178 434h-768q3 -118 59 -180q58 -64 168 -64q80 0 137 31q58 33 84 90l268 -108q-47 -115 -170 -178q-122 -64 -299 -64q-264 0 -424 148q-159 144 -159 385q0 235 159 393q159 155 404 155
q250 0 395 -157q74 -81 110 -188.5t36 -245.5v-17zM360 1423h224l145 -278h-123z" />
    <glyph glyph-name="eacute" unicode="&#xe9;" horiz-adv-x="1251" 
d="M827 635q-9 84 -65 137t-137 53q-85 0 -138 -47q-55 -53 -69 -143h409zM1178 434h-768q3 -118 59 -180q58 -64 168 -64q80 0 137 31q58 33 84 90l268 -108q-47 -115 -170 -178q-122 -64 -299 -64q-264 0 -424 148q-159 144 -159 385q0 235 159 393q159 155 404 155
q250 0 395 -157q74 -81 110 -188.5t36 -245.5v-17zM932 1423l-246 -278h-123l146 278h223z" />
    <glyph glyph-name="ecircumflex" unicode="&#xea;" horiz-adv-x="1251" 
d="M827 635q-9 84 -65 137t-137 53q-85 0 -138 -47q-55 -53 -69 -143h409zM1178 434h-768q3 -118 59 -180q58 -64 168 -64q80 0 137 31q58 33 84 90l268 -108q-47 -115 -170 -178q-122 -64 -299 -64q-264 0 -424 148q-159 144 -159 385q0 235 159 393q159 155 404 155
q250 0 395 -157q74 -81 110 -188.5t36 -245.5v-17zM338 1100l160 278h247l164 -278h-137l-147 143l-150 -143h-137z" />
    <glyph glyph-name="edieresis" unicode="&#xeb;" horiz-adv-x="1251" 
d="M827 635q-9 84 -65 137t-137 53q-85 0 -138 -47q-55 -53 -69 -143h409zM1178 434h-768q3 -118 59 -180q58 -64 168 -64q80 0 137 31q58 33 84 90l268 -108q-47 -115 -170 -178q-122 -64 -299 -64q-264 0 -424 148q-159 144 -159 385q0 235 159 393q159 155 404 155
q250 0 395 -157q74 -81 110 -188.5t36 -245.5v-17zM696 1264q0 49 37 88q36 34 88 34q53 0 90 -34q35 -35 35 -88q0 -57 -35 -90q-33 -37 -90 -37q-56 0 -90 37q-35 35 -35 90zM346 1264v-2q0 51 37 88q39 34 90 34q54 0 88 -34q35 -35 35 -88q0 -58 -33.5 -91.5
t-89.5 -33.5t-90 37q-37 33 -37 90z" />
    <glyph glyph-name="igrave" unicode="&#xec;" horiz-adv-x="639" 
d="M123 0v1010h356v-1010h-356zM104 1430h224l145 -279h-123z" />
    <glyph glyph-name="iacute" unicode="&#xed;" horiz-adv-x="639" 
d="M123 0v1010h356v-1010h-356zM512 1419l-246 -278h-123l146 278h223z" />
    <glyph glyph-name="icircumflex" unicode="&#xee;" horiz-adv-x="639" 
d="M141 0v1010h357v-1010h-357zM8 1133l160 278h248l164 -278h-138l-147 143l-150 -143h-137z" />
    <glyph glyph-name="idieresis" unicode="&#xef;" horiz-adv-x="639" 
d="M141 0v1010h357v-1010h-357zM356 1255q0 51 37 88q35 35 88 35t90 -35q35 -33 35 -88t-35 -90q-34 -37 -90 -37q-55 0 -90 37t-35 90zM6 1255v-2q0 52 37 88q38 35 90 35q55 0 88 -35q35 -33 35 -88q0 -57 -33 -90q-35 -35 -90 -35t-90 37q-37 34 -37 90z" />
    <glyph glyph-name="eth" unicode="&#xf0;" horiz-adv-x="1276" 
d="M848 473q0 101 -57 160q-57 57 -154 57q-100 0 -154 -57q-57 -57 -57 -160q0 -101 57 -158q54 -57 154 -57q93 0 154 59q57 58 57 156zM815 899q-47 75 -98 137t-121 117l-297 -137l-70 127l242 106q-78 44 -96 56q-23 13 -34.5 18.5t-31.5 15.5l119 209q62 -27 147 -73
q73 -43 166 -105l314 146l71 -130l-262 -118q174 -165 254 -338q84 -178 84 -381q0 -280 -149 -432q-150 -156 -416 -156q-120 0 -217 39q-104 38 -182 109q-82 71 -121 163q-43 89 -43 193q0 105 41 199q38 93 123 167q75 69 161 101q95 35 193 35q60 0 117 -17
q49 -14 106 -51z" />
    <glyph glyph-name="ntilde" unicode="&#xf1;" horiz-adv-x="1337" 
d="M131 0v1010h326v-205q69 120 164 180q92 57 223 57q99 0 176 -30q76 -34 123 -92q43 -58 57 -123q17 -83 17 -219v-578h-357v541q0 123 -39 176q-39 55 -127 55q-110 0 -162 -82q-51 -82 -51 -266v-424h-350zM971 1389l-4 -5q-26 -104 -64 -147q-39 -49 -106 -49h-29h-25
l-73 20q-33 11 -49 11q-23 0 -39 -13q-15 -13 -27 -49h-94q21 100 61 148q41 49 105 49h26q17 0 41 -6l74 -21h20h25q27 0 41 14q16 17 23 48h94z" />
    <glyph glyph-name="ograve" unicode="&#xf2;" horiz-adv-x="1276" 
d="M848 502q0 113 -57 178q-59 65 -154 65q-98 0 -154 -65q-57 -63 -57 -178q0 -112 55 -176q60 -66 156 -66t156 66q55 66 55 176zM1202 502q0 -111 -43 -207q-45 -102 -123 -176q-88 -82 -182 -119q-98 -39 -217 -39q-120 0 -217 39q-99 39 -182.5 118.5t-120.5 176.5
q-43 93 -43 207q0 111 43 209q40 99 121 176q79 76 182 117q98 38 217 38q118 0 217 -38q103 -41 182 -117q83 -75 123 -176q43 -98 43 -209zM434 1423h223l146 -278h-123z" />
    <glyph glyph-name="oacute" unicode="&#xf3;" horiz-adv-x="1276" 
d="M848 502q0 113 -57 178q-59 65 -154 65q-98 0 -154 -65q-57 -63 -57 -178q0 -112 55 -176q60 -66 156 -66t156 66q55 66 55 176zM1202 502q0 -111 -43 -207q-45 -102 -123 -176q-88 -82 -182 -119q-98 -39 -217 -39q-120 0 -217 39q-99 39 -182.5 118.5t-120.5 176.5
q-43 93 -43 207q0 111 43 209q40 99 121 176q79 76 182 117q98 38 217 38q118 0 217 -38q103 -41 182 -117q83 -75 123 -176q43 -98 43 -209zM883 1444l-246 -279h-123l145 279h224z" />
    <glyph glyph-name="ocircumflex" unicode="&#xf4;" horiz-adv-x="1276" 
d="M848 502q0 113 -57 178q-59 65 -154 65q-98 0 -154 -65q-57 -63 -57 -178q0 -112 55 -176q60 -66 156 -66t156 66q55 66 55 176zM1202 502q0 -111 -43 -207q-45 -102 -123 -176q-88 -82 -182 -119q-98 -39 -217 -39q-120 0 -217 39q-99 39 -182.5 118.5t-120.5 176.5
q-43 93 -43 207q0 111 43 209q40 99 121 176q79 76 182 117q98 38 217 38q118 0 217 -38q103 -41 182 -117q83 -75 123 -176q43 -98 43 -209zM352 1106l160 278h248l164 -278h-138l-147 143l-150 -143h-137z" />
    <glyph glyph-name="otilde" unicode="&#xf5;" horiz-adv-x="1276" 
d="M848 502q0 113 -57 178q-59 65 -154 65q-98 0 -154 -65q-57 -63 -57 -178q0 -112 55 -176q60 -66 156 -66t156 66q55 66 55 176zM1202 502q0 -111 -43 -207q-45 -102 -123 -176q-88 -82 -182 -119q-98 -39 -217 -39q-120 0 -217 39q-99 39 -182.5 118.5t-120.5 176.5
q-43 93 -43 207q0 111 43 209q40 99 121 176q79 76 182 117q98 38 217 38q118 0 217 -38q103 -41 182 -117q83 -75 123 -176q43 -98 43 -209zM893 1376l-4 -4q-27 -106 -64 -147q-39 -49 -106 -49h-29h-24l-74 20q-34 10 -49 10q-24 0 -39 -12q-14 -14 -27 -49h-94
q21 101 61 147q40 49 105 49h26q17 0 41 -6l74 -20h21h24q27 0 41 14q17 17 23 47h94z" />
    <glyph glyph-name="odieresis" unicode="&#xf6;" horiz-adv-x="1276" 
d="M848 502q0 113 -57 178q-59 65 -154 65q-98 0 -154 -65q-57 -63 -57 -178q0 -112 55 -176q60 -66 156 -66t156 66q55 66 55 176zM1202 502q0 -111 -43 -207q-45 -102 -123 -176q-88 -82 -182 -119q-98 -39 -217 -39q-120 0 -217 39q-99 39 -182.5 118.5t-120.5 176.5
q-43 93 -43 207q0 111 43 209q40 99 121 176q79 76 182 117q98 38 217 38q118 0 217 -38q103 -41 182 -117q83 -75 123 -176q43 -98 43 -209zM690 1260q0 51 37 88q36 34 88 34q53 0 90 -34q35 -35 35 -88q0 -56 -35 -91q-33 -36 -90 -36q-55 0 -90 35.5t-35 91.5zM340 1260
v-3q0 52 37 89q37 34 90 34q52 0 87.5 -34.5t35.5 -88.5q0 -57 -33.5 -90.5t-89.5 -33.5q-57 0 -90 36q-37 34 -37 91z" />
    <glyph glyph-name="divide" unicode="&#xf7;" horiz-adv-x="1706" 
d="M854 371q65 0 117 -47q47 -52 47 -119q0 -65 -47 -117q-47 -47 -117 -47t-117 47q-49 51 -49 117t49 117q51 49 117 49zM254 727h1198v-231h-1198v231zM854 1182q66 0 117 -49q47 -52 47 -117t-47 -117q-50 -47 -119 -47q-70 0 -117 47q-47 52 -47 117q0 66 49 117
q51 49 117 49z" />
    <glyph glyph-name="oslash" unicode="&#xf8;" horiz-adv-x="1276" 
d="M776 717q-30 23 -61 33q-38 10 -80 10q-97 0 -160 -72q-59 -71 -59 -188q0 -49 6 -76q3 -31 18 -51zM502 293q26 -23 59 -35q37 -12 80 -12q100 0 162 71q59 73 59 189q0 32 -6 65q-2 25 -16 64zM184 -47l-84 84l111 113q-68 80 -102 172q-35 87 -35 182q0 111 43 209
q40 98 121 174q79 76 182 116.5t217 40.5q97 0 182 -26q84 -28 162 -84l133 137l86 -76l-131 -139q66 -72 98 -160q35 -93 35 -192q0 -114 -43 -207q-43 -100 -123 -176q-79 -76 -182 -117t-217 -41q-101 0 -188 29q-45 14 -80 32.5t-68 45.5z" />
    <glyph glyph-name="ugrave" unicode="&#xf9;" horiz-adv-x="1292" 
d="M1167 1010v-516q0 -173 -26 -252q-28 -82 -94 -148q-63 -66 -166 -100q-98 -33 -236 -33q-137 0 -233 33q-99 32 -170 100q-65 62 -92 146q-27 78 -27 254v516h340v-539q0 -127 43 -182q39 -58 135 -58q95 0 136.5 56t41.5 184v539h348zM350 1391h223l146 -279h-123z" />
    <glyph glyph-name="uacute" unicode="&#xfa;" horiz-adv-x="1292" 
d="M1167 1010v-516q0 -173 -26 -252q-28 -82 -94 -148q-63 -66 -166 -100q-98 -33 -236 -33q-137 0 -233 33q-99 32 -170 100q-65 62 -92 146q-27 78 -27 254v516h340v-539q0 -127 43 -182q39 -58 135 -58q95 0 136.5 56t41.5 184v539h348zM952 1391l-245 -279h-123l145 279
h223z" />
    <glyph glyph-name="ucircumflex" unicode="&#xfb;" horiz-adv-x="1292" 
d="M1167 1010v-516q0 -173 -26 -252q-28 -82 -94 -148q-63 -66 -166 -100q-98 -33 -236 -33q-137 0 -233 33q-99 32 -170 100q-65 62 -92 146q-27 78 -27 254v516h340v-539q0 -127 43 -182q39 -58 135 -58q95 0 136.5 56t41.5 184v539h348zM358 1139l160 278h248l164 -278
h-137l-148 143l-149 -143h-138z" />
    <glyph glyph-name="udieresis" unicode="&#xfc;" horiz-adv-x="1292" 
d="M1167 1010v-516q0 -173 -26 -252q-28 -82 -94 -148q-63 -66 -166 -100q-98 -33 -236 -33q-137 0 -233 33q-99 32 -170 100q-65 62 -92 146q-27 78 -27 254v516h340v-539q0 -127 43 -182q39 -58 135 -58q95 0 136.5 56t41.5 184v539h348zM686 1251q0 52 37 88q33 35 88 35
q53 0 90 -35q35 -33 35 -88t-35 -90q-34 -37 -90 -37t-90 37q-35 35 -35 90zM336 1251v-2q0 52 37 87.5t90 35.5t88 -35t35 -88q0 -55 -33 -90q-37 -35 -90 -35q-56 0 -90 37q-37 34 -37 90z" />
    <glyph glyph-name="yacute" unicode="&#xfd;" horiz-adv-x="1090" 
d="M76 -446l284 600l-407 856h395l141 -365q21 -50 29 -86q11 -37 19 -74q6 36 18 76q8 35 29 84l143 365h381l-635 -1456h-397zM844 1411l-246 -278h-123l146 278h223z" />
    <glyph glyph-name="thorn" unicode="&#xfe;" horiz-adv-x="1090" 
d="M76 -446l284 600l-407 856h395l141 -365q21 -50 29 -86q11 -37 19 -74q6 36 18 76q8 35 29 84l143 365h381l-635 -1456h-397zM883 1341l-4 -4q-26 -104 -64 -147q-40 -49 -106 -49h-29h-25l-73 20q-34 10 -50 10q-23 0 -38 -12.5t-27 -48.5h-94q21 100 61 147
q41 50 105 50h26q19 0 41 -7l74 -20h20h25q27 0 41 14q16 18 22 47h95z" />
    <glyph glyph-name="ydieresis" unicode="&#xff;" horiz-adv-x="1090" 
d="M76 -446l284 600l-407 856h395l141 -365q21 -50 29 -86q11 -37 19 -74q6 36 18 76q8 35 29 84l143 365h381l-635 -1456h-397zM596 1249q0 52 37 88q33 35 88 35q52 0 90 -35q35 -33 35 -88t-35 -90q-35 -37 -90 -37q-56 0 -90 37q-35 35 -35 90zM246 1249v-2
q0 52 37 87.5t90 35.5t88 -35t35 -88q0 -55 -33 -90q-37 -35 -90 -35q-56 0 -90 37q-37 34 -37 90z" />
    <glyph glyph-name="aahoa" unicode="&#x102;" horiz-adv-x="1479" 
d="M543 547h397l-149 483q-5 13 -19 72q-17 69 -31 125q-14 -51 -24 -103q-16 -50 -27 -94zM-16 0l505 1464h500l506 -1464h-397l-74 262h-567l-76 -262h-397zM479 1782h109q3 -57 39 -80q37 -25 104 -25q66 0 105 25q36 24 36 80h105q-9 -127 -70 -185q-61 -57 -178 -57
q-120 0 -180 59q-64 64 -70 183z" />
    <glyph glyph-name="aath" unicode="&#x103;" horiz-adv-x="1352" 
d="M901 506q0 120 -63 186q-64 70 -172 70t-170 -68q-64 -70 -64 -188q0 -119 64 -187q61 -67 170 -67q108 0 171.5 67t63.5 187zM1214 1010v-1010h-327v164q-71 -105 -158.5 -154t-204.5 -49q-203 0 -323 148q-59 73 -90 172t-31 223q0 248 127 393t340 145q114 0 196 -49
q83 -47 142 -149v166h329zM508 1362h108q3 -56 39 -80q39 -25 105 -25t103.5 24.5t37.5 80.5h105q-11 -128 -70 -184q-31 -29 -76 -43.5t-102 -14.5q-121 0 -180 60q-64 64 -70 182z" />
    <glyph glyph-name="dhoa" unicode="&#x110;" horiz-adv-x="1591" 
d="M178 0v614h-178v258h178v592h303q184 0 299 -8t187 -24q142 -32 247 -107q140 -95 211 -248q72 -150 72 -346t-72 -346q-71 -152 -211 -248q-108 -74 -241 -104q-132 -33 -424 -33h-68h-303zM571 328h70q235 0 342 98q109 95 109 305q0 209 -109 307q-108 99 -342 99h-70
v-265h273v-258h-273v-286z" />
    <glyph glyph-name="dth" unicode="&#x111;" horiz-adv-x="1352" 
d="M903 504q0 119 -61 186q-65 68 -172 68q-108 0 -170 -68t-62 -186q0 -119 62 -187q61 -67 170 -67q108 0 172 67q61 67 61 187zM1219 1550v-235h131v-115h-131v-1202h-328v164q-68 -103 -154 -152q-80 -51 -188 -51q-212 0 -338 147q-127 150 -127 396q0 240 127 391
q126 147 326 147q128 0 208 -47q77 -43 144 -153q-4 27 -8 82q-4 60 -4 98v180h-373v115h373v235h342z" />
    <glyph glyph-name="dth" unicode="&#x20ab;" horiz-adv-x="1352" 
d="M903 504q0 119 -61 186q-65 68 -172 68q-108 0 -170 -68t-62 -186q0 -119 62 -187q61 -67 170 -67q108 0 172 67q61 67 61 187zM1219 1550v-235h131v-115h-131v-1202h-328v164q-68 -103 -154 -152q-80 -51 -188 -51q-212 0 -338 147q-127 150 -127 396q0 240 127 391
q126 147 326 147q128 0 208 -47q77 -43 144 -153q-4 27 -8 82q-4 60 -4 98v180h-373v115h373v235h342z" />
    <glyph glyph-name="ihoanga" unicode="&#x128;" horiz-adv-x="735" 
d="M166 0v1464h403v-1464h-403zM623 1798l-5 -4q-25 -104 -63 -147q-41 -50 -106 -50h-29h-25l-73 21q-34 10 -50 10q-22 0 -39 -12q-13 -13 -26 -49h-94q21 101 61 147q40 49 105 49h26q17 0 41 -6l74 -20h20h25q27 0 41 14q16 16 22 47h95z" />
    <glyph glyph-name="ithnga" unicode="&#x129;" horiz-adv-x="639" 
d="M123 0v1010h356v-1010h-356zM553 1372l-4 -4q-26 -105 -64 -147q-39 -50 -106 -50h-29h-24l-74 21q-34 10 -49 10q-24 0 -39 -12q-14 -14 -27 -49h-94q21 99 61 147q40 49 105 49h27q16 0 40 -6l74 -20h21h24q27 0 41 14q17 17 23 47h94z" />
    <glyph glyph-name="OE" unicode="&#x152;" horiz-adv-x="2224" 
d="M877 289q176 0 286 123q109 121 109 319q0 199 -111 322t-284 123q-168 0 -283 -127q-113 -125 -113 -318q0 -194 111 -317q110 -125 285 -125zM1296 1464h861v-321h-508v-254h479v-314h-479v-247h508v-328h-861v199q-91 -124 -204 -181q-117 -57 -277 -57
q-153 0 -270 51q-125 50 -226 154q-113 114 -167 256q-58 140 -58 309q0 159 60 313q60 152 163 252q102 102 238 156q128 51 297 51q141 0 256 -53q112 -53 188 -154v168z" />
    <glyph glyph-name="oe" unicode="&#x153;" horiz-adv-x="2009" 
d="M1178 623h409q-9 90 -65 143t-138 53q-87 0 -139 -49t-67 -147zM866 502q0 125 -57 194q-60 72 -162 72t-162 -72q-59 -71 -59 -194q0 -122 59 -193t162 -71q105 0 162 69t57 195zM1018 883q62 83 156 123q89 38 219 38q255 0 399 -159q72 -79 108.5 -188t36.5 -251v-24
h-766q5 -105 64 -164q62 -59 166 -59q79 0 135 30q57 30 84 93l268 -111q-52 -120 -172 -184q-126 -66 -303 -66q-152 0 -244 39q-101 42 -157 121q-56 -79 -152 -121q-91 -39 -237 -39q-122 0 -218 37t-176 113q-155 149 -155 381q0 236 157 395q159 157 390 157
q133 0 229 -38q99 -43 168 -123z" />
    <glyph glyph-name="Scaron" unicode="&#x160;" horiz-adv-x="1190" 
d="M221 473q92 -102 176 -151q88 -50 172 -50q79 0 131 43t52 109q0 72 -43 113q-46 39 -203 81q-214 58 -303 150q-90 94 -90 256q0 210 141 342q139 133 364 133q127 0 230 -33q108 -33 205 -98l-125 -287q-66 57 -140 88q-72 29 -141 29q-70 0 -117 -35q-45 -33 -45 -88
q0 -53 39 -88q41 -33 154 -63q4 -1 7 -1.5t9 -2.5q244 -65 322 -146q51 -51 80 -129q26 -74 26 -168q0 -232 -153 -375q-154 -141 -408 -141q-156 0 -278.5 51t-241.5 164zM283 1886l159 -278h248l164 278h-137l-148 -143l-149 143h-137z" />
    <glyph glyph-name="scaron" unicode="&#x161;" horiz-adv-x="991" 
d="M37 84l74 272q78 -69 172 -104q93 -37 188 -37q68 0 102 23q35 21 35 61q0 67 -141 100q-49 11 -74 19q-163 48 -231 117q-74 71 -74 184q0 146 111 235q107 88 299 88q93 0 198 -22q88 -18 205 -70l-74 -245q-72 49 -145 73q-69 25 -145 25q-62 0 -93 -19
q-30 -18 -30 -55q0 -52 141 -90q46 -14 47 -14q184 -52 258 -123q72 -75 72 -195q0 -155 -119 -250q-122 -96 -315 -96q-134 0 -246.5 30.5t-214.5 92.5zM193 1432l159 -279h248l164 279h-137l-148 -144l-149 144h-137z" />
    <glyph glyph-name="uhoanga" unicode="&#x168;" horiz-adv-x="1597" 
d="M145 1464h400v-712q0 -163 8 -226q10 -75 27 -114q21 -57 79 -84q58 -31 140 -31q81 0 139 31q53 26 80 84q16 40 26 114q9 60 9 226v100v612h397v-774q0 -238 -29 -354q-27 -115 -98 -197q-78 -91 -207 -133q-128 -45 -317 -45q-193 0 -318 45q-127 42 -207 133
q-69 80 -98 197q-31 118 -31 354v152v622zM1053 1798l-4 -4q-26 -105 -64 -147q-41 -50 -106 -50h-29h-25l-73 21q-34 10 -50 10q-23 0 -38 -12q-14 -12 -27 -49h-94q21 99 61 147q40 49 105 49h26q17 0 41 -6l74 -20h20h25q27 0 41 14q16 16 22 47h95z" />
    <glyph glyph-name="uthnga" unicode="&#x169;" horiz-adv-x="1292" 
d="M1167 1010v-516q0 -173 -26 -252q-28 -82 -94 -148q-63 -66 -166 -100q-98 -33 -236 -33q-137 0 -233 33q-99 32 -170 100q-65 62 -92 146q-27 78 -27 254v516h340v-539q0 -127 43 -182q39 -58 135 -58q95 0 136.5 56t41.5 184v539h348zM901 1343l-4 -4
q-24 -100 -63 -147q-40 -49 -107 -49h-29h-24l-74 20q-37 11 -49 11q-23 0 -39 -13q-13 -13 -27 -49h-94q23 103 62 148q40 49 104 49h27q15 0 41 -6l73 -21h21h24q27 0 41 14q17 17 23 47h94z" />
    <glyph glyph-name="florin" unicode="&#x192;" horiz-adv-x="1280" 
d="M156 -117q8 -1 15 -2.5t17 -3.5q11 -2 31 -2q120 0 178 340q11 63 13 78l67 397h-186l41 248h186l27 152q39 231 141 313q41 35 113 59q63 19 143 19q43 0 90 -6q78 -18 94 -23l-45 -260q-28 12 -49 18q-24 7 -37 7q-48 0 -73 -31t-41 -111l-23 -137h180l-41 -248h-182
l-86 -518q-59 -346 -154.5 -453.5t-306.5 -107.5q-22 0 -80 4q-13 2 -90 16z" />
    <glyph glyph-name="ochoa" unicode="&#x1a0;" horiz-adv-x="1753" 
d="M1659 729l-2 2q0 -160 -58 -297q-55 -134 -169 -246q-113 -108 -256 -165q-149 -60 -300 -60q-150 0 -299 60q-146 58 -253 165q-111 105 -170.5 247.5t-59.5 295.5t60 295q59 143 170 248q107 109 253 168q142 57 299 57q160 0 302 -57q145 -59 254 -168
q77 -71 118 -160q55 14 88 51t48.5 105t15.5 172v57h147q-3 -259 -71.5 -367t-173.5 -108q57 -138 57 -295zM874 301q166 0 277 123q106 118 106 307q0 184 -108 307q-111 123 -275 123q-166 0 -274 -123t-108 -307q0 -191 106 -309q109 -121 276 -121z" />
    <glyph glyph-name="octh" unicode="&#x1a1;" horiz-adv-x="1276" 
d="M848 502q0 113 -57 178q-59 65 -154 65q-98 0 -154 -65q-57 -63 -57 -178q0 -112 55 -176q60 -66 156 -66t156 66q55 66 55 176zM1202 502l4 2q0 -111 -43 -207q-42 -100 -123 -176q-88 -82 -182 -119q-97 -39 -217 -39q-119 0 -217.5 39t-182 118.5t-120.5 176.5
q-43 93 -43 207q0 111 43 209q40 99 121 176q79 76 182 117q99 38 217 38q119 0 217 -38q103 -41 182 -117q57 -44 82 -103q47 9 71 62t24 192l149 2q0 -170 -52 -253.5t-145 -94.5q16 -35 24.5 -85.5t8.5 -106.5z" />
    <glyph glyph-name="uchoa" unicode="&#x1af;" horiz-adv-x="1597" 
d="M145 1464h400v-712q0 -163 8 -226q10 -75 27 -114q21 -57 79 -84q58 -31 140 -31q81 0 139 31q53 26 80 84q16 40 26 114q9 60 9 226v100v612h397v-366q54 14 77 77.5t23 206.5q0 24 -0.5 40.5t-1.5 35.5h148q-3 -259 -71.5 -367t-174.5 -108v-293q0 -238 -29 -354
q-27 -115 -98 -197q-78 -91 -207 -133q-128 -45 -317 -45q-193 0 -318 45q-127 42 -207 133q-69 80 -98 197q-31 118 -31 354v152v622z" />
    <glyph glyph-name="ucth" unicode="&#x1b0;" horiz-adv-x="1292" 
d="M1167 1010v-260q42 7 65 61t23 193h148q0 -179 -66.5 -264t-169.5 -85v-161q0 -173 -26 -252q-28 -82 -94 -148q-63 -66 -166 -100q-98 -33 -236 -33q-137 0 -233 33q-99 32 -170 100q-65 62 -92 146q-27 78 -27 254v516h340v-539q0 -127 43 -182q39 -58 135 -58
q95 0 136.5 56t41.5 184v539h348z" />
    <glyph glyph-name="circumflex" unicode="&#x2c6;" horiz-adv-x="1024" 
d="M190 1147l183 350h276l182 -350h-153l-166 180l-168 -180h-154z" />
    <glyph glyph-name="tilde" unicode="&#x2dc;" horiz-adv-x="1024" 
d="M844 1468q-32 -133 -82 -188q-52 -61 -137 -61q-17 0 -41 4q-22 3 -35 6l-92 26h-2q-48 15 -66 15q-33 0 -53 -19q-23 -23 -37 -63h-119q29 131 80 188q53 62 135 62q9 0 37 -4q18 -3 53 -13l95 -26l26 -6.5t31 -2.5q34 0 55 21q24 23 33 61h119z" />
    <glyph glyph-name="abhuyenth" unicode="&#x300;" 
d="M-614 1638h223l145 -278h-123z" />
    <glyph glyph-name="absacth" unicode="&#x301;" 
d="M-61 1597l-246 -278h-123l145 278h224z" />
    <glyph glyph-name="absacth" unicode="&#x302;" 
d="M-61 1597l-246 -278h-123l145 278h224z" />
    <glyph glyph-name="abngath" unicode="&#x303;" 
d="M-379 1679l-4 -4q-24 -100 -63 -147q-40 -49 -107 -49h-29h-24l-74 20q-34 10 -49 10q-24 0 -39 -12q-12 -12 -27 -49h-94q23 103 62 147q39 50 104 50h27q11 0 41 -7l73 -20h21h24q27 0 41 14q17 15 23 47h94z" />
    <glyph glyph-name="abhoith" unicode="&#x309;" 
d="M-256 1270h-135v157h39q43 0 59 13q17 14 17 45q0 23 -13.5 37t-36.5 14t-34 -8q-13 -12 -13 -37h-127q0 71 51 115q51 41 138 41q76 0 123 -45q45 -46 45 -119q0 -60 -29 -99q-31 -36 -84 -36v-78z" />
    <glyph glyph-name="ananghoa" unicode="&#x323;" 
d="M-1014 -276h2q0 54 39 92q40 39 94 39q55 0 97 -37q37 -39 37 -94q0 -56 -39 -97q-40 -39 -95 -39q-53 0 -96 41q-39 40 -39 95z" />
    <glyph glyph-name="ananghoa" unicode="&#xf02b;" 
d="M-1014 -276h2q0 54 39 92q40 39 94 39q55 0 97 -37q37 -39 37 -94q0 -56 -39 -97q-40 -39 -95 -39q-53 0 -96 41q-39 40 -39 95z" />
    <glyph glyph-name="ananghoa" unicode="&#xf029;" 
d="M-1014 -276h2q0 54 39 92q40 39 94 39q55 0 97 -37q37 -39 37 -94q0 -56 -39 -97q-40 -39 -95 -39q-53 0 -96 41q-39 40 -39 95z" />
    <glyph glyph-name="ananghoa" unicode="&#xf022;" 
d="M-1014 -276h2q0 54 39 92q40 39 94 39q55 0 97 -37q37 -39 37 -94q0 -56 -39 -97q-40 -39 -95 -39q-53 0 -96 41q-39 40 -39 95z" />
    <glyph glyph-name="ananghoa" unicode="&#xf021;" 
d="M-1014 -276h2q0 54 39 92q40 39 94 39q55 0 97 -37q37 -39 37 -94q0 -56 -39 -97q-40 -39 -95 -39q-53 0 -96 41q-39 40 -39 95z" />
    <glyph glyph-name="ananghoa" unicode="&#xf020;" 
d="M-1014 -276h2q0 54 39 92q40 39 94 39q55 0 97 -37q37 -39 37 -94q0 -56 -39 -97q-40 -39 -95 -39q-53 0 -96 41q-39 40 -39 95z" />
    <glyph glyph-name="ananghoa" unicode="&#xf01f;" 
d="M-1014 -276h2q0 54 39 92q40 39 94 39q55 0 97 -37q37 -39 37 -94q0 -56 -39 -97q-40 -39 -95 -39q-53 0 -96 41q-39 40 -39 95z" />
    <glyph glyph-name="ananghoa" unicode="&#xf01e;" 
d="M-1014 -276h2q0 54 39 92q40 39 94 39q55 0 97 -37q37 -39 37 -94q0 -56 -39 -97q-40 -39 -95 -39q-53 0 -96 41q-39 40 -39 95z" />
    <glyph glyph-name="ahuyenhoa" unicode="&#x340;" 
d="M-1137 1864h224l145 -279h-123z" />
    <glyph glyph-name="ahuyenhoa" unicode="&#xf00c;" 
d="M-1137 1864h224l145 -279h-123z" />
    <glyph glyph-name="asachoa" unicode="&#x341;" 
d="M-625 1864l-245 -279h-123l145 279h223z" />
    <glyph glyph-name="asachoa" unicode="&#xf007;" 
d="M-625 1864l-245 -279h-123l145 279h223z" />
    <glyph glyph-name="angahoa" unicode="&#x342;" 
d="M-614 1802l-4 -4q-27 -106 -64 -147q-40 -49 -106 -49h-29h-25l-73 20q-34 10 -50 10q-22 0 -39 -12q-13 -13 -26 -49h-94q22 103 61 147q40 49 105 49h26q17 0 41 -6l74 -20h20h25q27 0 41 14q16 16 22 47h95z" />
    <glyph glyph-name="angahoa" unicode="&#xf030;" 
d="M-614 1802l-4 -4q-27 -106 -64 -147q-40 -49 -106 -49h-29h-25l-73 20q-34 10 -50 10q-22 0 -39 -12q-13 -13 -26 -49h-94q22 103 61 147q40 49 105 49h26q17 0 41 -6l74 -20h20h25q27 0 41 14q16 16 22 47h95z" />
    <glyph glyph-name="angahoa" unicode="&#xf02e;" 
d="M-614 1802l-4 -4q-27 -106 -64 -147q-40 -49 -106 -49h-29h-25l-73 20q-34 10 -50 10q-22 0 -39 -12q-13 -13 -26 -49h-94q22 103 61 147q40 49 105 49h26q17 0 41 -6l74 -20h20h25q27 0 41 14q16 16 22 47h95z" />
    <glyph glyph-name="angahoa" unicode="&#xf01c;" 
d="M-614 1802l-4 -4q-27 -106 -64 -147q-40 -49 -106 -49h-29h-25l-73 20q-34 10 -50 10q-22 0 -39 -12q-13 -13 -26 -49h-94q22 103 61 147q40 49 105 49h26q17 0 41 -6l74 -20h20h25q27 0 41 14q16 16 22 47h95z" />
    <glyph glyph-name="angahoa" unicode="&#xf017;" 
d="M-614 1802l-4 -4q-27 -106 -64 -147q-40 -49 -106 -49h-29h-25l-73 20q-34 10 -50 10q-22 0 -39 -12q-13 -13 -26 -49h-94q22 103 61 147q40 49 105 49h26q17 0 41 -6l74 -20h20h25q27 0 41 14q16 16 22 47h95z" />
    <glyph glyph-name="angahoa" unicode="&#xf016;" 
d="M-614 1802l-4 -4q-27 -106 -64 -147q-40 -49 -106 -49h-29h-25l-73 20q-34 10 -50 10q-22 0 -39 -12q-13 -13 -26 -49h-94q22 103 61 147q40 49 105 49h26q17 0 41 -6l74 -20h20h25q27 0 41 14q16 16 22 47h95z" />
    <glyph glyph-name="ahoanang" unicode="&#x1ea0;" horiz-adv-x="1479" 
d="M543 547h397l-149 483q-5 13 -19 72q-17 69 -31 125q-14 -51 -24 -103q-16 -50 -27 -94zM-16 0l505 1464h500l506 -1464h-397l-74 262h-567l-76 -262h-397zM578 -254h2q0 57 38 92q39 39 95 39t96 -37q37 -36 37 -94t-39 -96.5t-94 -38.5q-56 0 -97 41q-38 38 -38 94z
" />
    <glyph glyph-name="athnang" unicode="&#x1ea1;" horiz-adv-x="1352" 
d="M901 506q0 120 -63 186q-64 70 -172 70t-170 -68q-64 -70 -64 -188q0 -119 64 -187q61 -67 170 -67q108 0 171.5 67t63.5 187zM1214 1010v-1010h-327v164q-71 -105 -158.5 -154t-204.5 -49q-203 0 -323 148q-59 73 -90 172t-31 223q0 248 127 393t340 145q114 0 196 -49
q83 -47 142 -149v166h329zM494 -272h2q0 56 39 92q39 39 94 39q54 0 96 -37q37 -37 37 -94q0 -58 -39.5 -97t-93.5 -39t-97 41q-38 39 -38 95z" />
    <glyph glyph-name="ahoahoi" unicode="&#x1ea2;" horiz-adv-x="1479" 
d="M543 547h397l-149 483q-5 13 -19 72q-17 69 -31 125q-14 -51 -24 -103q-16 -50 -27 -94zM-16 0l505 1464h500l506 -1464h-397l-74 262h-567l-76 -262h-397zM797 1565h-135v157h38q46 0 60 13q16 13 16 45q0 24 -12 37q-14 14 -37 14q-24 0 -35 -8q-12 -12 -12 -37h-127
q0 73 51 114.5t137 41.5q78 0 123 -46q45 -44 45 -118q0 -61 -28 -99q-32 -37 -84 -37v-77z" />
    <glyph glyph-name="athhoi" unicode="&#x1ea3;" horiz-adv-x="1352" 
d="M901 506q0 120 -63 186q-64 70 -172 70t-170 -68q-64 -70 -64 -188q0 -119 64 -187q61 -67 170 -67q108 0 171.5 67t63.5 187zM1214 1010v-1010h-327v164q-71 -105 -158.5 -154t-204.5 -49q-203 0 -323 148q-59 73 -90 172t-31 223q0 248 127 393t340 145q114 0 196 -49
q83 -47 142 -149v166h329zM795 1153h-136v158h39q44 0 60 12q16 13 16 45q0 25 -12 37q-14 14 -37 14q-24 0 -35 -8q-12 -12 -12 -37h-127q0 73 51 115q49 41 137 41q78 0 123 -45t45 -119q0 -62 -28 -98q-31 -37 -84 -37v-78z" />
    <glyph glyph-name="abhoasac" unicode="&#x1ea4;" horiz-adv-x="1479" 
d="M543 547h397l-149 483q-5 13 -19 72q-17 69 -31 125q-14 -51 -24 -103q-16 -50 -27 -94zM-16 0l505 1464h500l506 -1464h-397l-74 262h-567l-76 -262h-397zM449 1526l159 278h248l164 -278h-137l-148 143l-149 -143h-137zM1346 1980l-246 -278h-123l145 278h224z" />
    <glyph glyph-name="abthsac" unicode="&#x1ea5;" horiz-adv-x="1352" 
d="M901 506q0 120 -63 186q-64 70 -172 70t-170 -68q-64 -70 -64 -188q0 -119 64 -187q61 -67 170 -67q108 0 171.5 67t63.5 187zM1214 1010v-1010h-327v164q-71 -105 -158.5 -154t-204.5 -49q-203 0 -323 148q-59 73 -90 172t-31 223q0 248 127 393t340 145q114 0 196 -49
q83 -47 142 -149v166h329zM426 1116l160 279h248l163 -279h-137l-147 144l-150 -144h-137zM1323 1571l-246 -279h-123l146 279h223z" />
    <glyph glyph-name="abhoahuyen" unicode="&#x1ea6;" horiz-adv-x="1479" 
d="M543 547h397l-149 483q-5 13 -19 72q-17 69 -31 125q-14 -51 -24 -103q-16 -50 -27 -94zM-16 0l505 1464h500l506 -1464h-397l-74 262h-567l-76 -262h-397zM449 1526l159 278h248l164 -278h-137l-148 143l-149 -143h-137zM774 2073h223l146 -279h-123z" />
    <glyph glyph-name="abthhuyen" unicode="&#x1ea7;" horiz-adv-x="1352" 
d="M901 506q0 120 -63 186q-64 70 -172 70t-170 -68q-64 -70 -64 -188q0 -119 64 -187q61 -67 170 -67q108 0 171.5 67t63.5 187zM1214 1010v-1010h-327v164q-71 -105 -158.5 -154t-204.5 -49q-203 0 -323 148q-59 73 -90 172t-31 223q0 248 127 393t340 145q114 0 196 -49
q83 -47 142 -149v166h329zM426 1116l160 279h248l163 -279h-137l-147 144l-150 -144h-137zM752 1663h223l145 -279h-123z" />
    <glyph glyph-name="abhoahoi" unicode="&#x1ea8;" horiz-adv-x="1479" 
d="M543 547h397l-149 483q-5 13 -19 72q-17 69 -31 125q-14 -51 -24 -103q-16 -50 -27 -94zM-16 0l505 1464h500l506 -1464h-397l-74 262h-567l-76 -262h-397zM449 1526l159 278h248l164 -278h-137l-148 143l-149 -143h-137zM1114 1720h-135v158h39q45 0 59 12q17 14 17 45
q0 25 -13 37q-15 15 -37 15q-24 0 -34 -9q-13 -12 -13 -36h-127q0 72 52 114q48 41 137 41q78 0 123 -45.5t45 -118.5q0 -61 -29.5 -98t-83.5 -37v-78z" />
    <glyph glyph-name="abthhoi" unicode="&#x1ea9;" horiz-adv-x="1352" 
d="M901 506q0 120 -63 186q-64 70 -172 70t-170 -68q-64 -70 -64 -188q0 -119 64 -187q61 -67 170 -67q108 0 171.5 67t63.5 187zM1214 1010v-1010h-327v164q-71 -105 -158.5 -154t-204.5 -49q-203 0 -323 148q-59 73 -90 172t-31 223q0 248 127 393t340 145q114 0 196 -49
q83 -47 142 -149v166h329zM426 1116l160 279h248l163 -279h-137l-147 144l-150 -144h-137zM1092 1311h-136v157h39q45 0 60 13q16 13 16 45q0 24 -12 37q-14 14 -37 14q-24 0 -35 -8q-12 -12 -12 -37h-127q0 73 51 114.5t137 41.5q77 0 123 -46q45 -44 45 -118
q0 -61 -28 -99q-31 -36 -84 -36v-78z" />
    <glyph glyph-name="abhoanga" unicode="&#x1eaa;" horiz-adv-x="1479" 
d="M543 547h397l-149 483q-5 13 -19 72q-17 69 -31 125q-14 -51 -24 -103q-16 -50 -27 -94zM-16 0l505 1464h500l506 -1464h-397l-74 262h-567l-76 -262h-397zM449 1526l159 278h248l164 -278h-137l-148 143l-149 -143h-137zM967 2118l-4 -4q-26 -105 -64 -148
q-40 -49 -106 -49h-29h-25l-73 20q-33 11 -50 11q-24 0 -38.5 -13t-26.5 -49h-94q21 100 61 148q41 49 105 49h26q17 0 41 -6l74 -21h20h25q27 0 41 15q16 16 22 47h95z" />
    <glyph glyph-name="abthnga" unicode="&#x1eab;" horiz-adv-x="1352" 
d="M901 506q0 120 -63 186q-64 70 -172 70t-170 -68q-64 -70 -64 -188q0 -119 64 -187q61 -67 170 -67q108 0 171.5 67t63.5 187zM1214 1010v-1010h-327v164q-71 -105 -158.5 -154t-204.5 -49q-203 0 -323 148q-59 73 -90 172t-31 223q0 248 127 393t340 145q114 0 196 -49
q83 -47 142 -149v166h329zM426 1116l160 279h248l163 -279h-137l-147 144l-150 -144h-137zM944 1708l-4 -4q-24 -101 -63 -148q-41 -49 -107 -49h-29h-24l-74 21q-34 10 -49 10q-24 0 -39 -12q-12 -12 -27 -49h-94q23 102 62 147q39 49 104 49h27q15 0 41 -6l73 -20h21h24
q27 0 41 14q17 15 23 47h94z" />
    <glyph glyph-name="abhoanang" unicode="&#x1eac;" horiz-adv-x="1479" 
d="M543 547h397l-149 483q-5 13 -19 72q-17 69 -31 125q-14 -51 -24 -103q-16 -50 -27 -94zM-16 0l505 1464h500l506 -1464h-397l-74 262h-567l-76 -262h-397zM449 1526l159 278h248l164 -278h-137l-148 143l-149 -143h-137zM598 -262h2q0 56 39 92q39 39 94 39
q58 0 95.5 -37t37.5 -94q0 -58 -39 -96q-38 -39 -94 -39q-55 0 -96 41q-39 38 -39 94z" />
    <glyph glyph-name="abthnang" unicode="&#x1ead;" horiz-adv-x="1352" 
d="M901 506q0 120 -63 186q-64 70 -172 70t-170 -68q-64 -70 -64 -188q0 -119 64 -187q61 -67 170 -67q108 0 171.5 67t63.5 187zM1214 1010v-1010h-327v164q-71 -105 -158.5 -154t-204.5 -49q-203 0 -323 148q-59 73 -90 172t-31 223q0 248 127 393t340 145q114 0 196 -49
q83 -47 142 -149v166h329zM426 1116l160 279h248l163 -279h-137l-147 144l-150 -144h-137zM545 -293h2q0 57 39 92q38 39 94 39q58 0 96 -37q37 -36 37 -94q0 -57 -39 -96q-38 -39 -94 -39q-57 0 -96 41q-39 39 -39 94z" />
    <glyph glyph-name="aahoasac" unicode="&#x1eae;" horiz-adv-x="1479" 
d="M543 547h397l-149 483q-5 13 -19 72q-17 69 -31 125q-14 -51 -24 -103q-16 -50 -27 -94zM-16 0l505 1464h500l506 -1464h-397l-74 262h-567l-76 -262h-397zM479 1782h109q3 -57 39 -80q37 -25 104 -25q66 0 105 25q36 24 36 80h105q-9 -127 -70 -185q-61 -57 -178 -57
q-120 0 -180 59q-64 64 -70 183zM997 2132l-245 -279h-123l145 279h223z" />
    <glyph glyph-name="aathsac" unicode="&#x1eaf;" horiz-adv-x="1352" 
d="M901 506q0 120 -63 186q-64 70 -172 70t-170 -68q-64 -70 -64 -188q0 -119 64 -187q61 -67 170 -67q108 0 171.5 67t63.5 187zM1214 1010v-1010h-327v164q-71 -105 -158.5 -154t-204.5 -49q-203 0 -323 148q-59 73 -90 172t-31 223q0 248 127 393t340 145q114 0 196 -49
q83 -47 142 -149v166h329zM508 1362h108q3 -56 39 -80q39 -25 105 -25t103.5 24.5t37.5 80.5h105q-11 -128 -70 -184q-31 -29 -76 -43.5t-102 -14.5q-121 0 -180 60q-64 64 -70 182zM1026 1712l-246 -278h-123l146 278h223z" />
    <glyph glyph-name="aahoahuyen" unicode="&#x1eb0;" horiz-adv-x="1479" 
d="M543 547h397l-149 483q-5 13 -19 72q-17 69 -31 125q-14 -51 -24 -103q-16 -50 -27 -94zM-16 0l505 1464h500l506 -1464h-397l-74 262h-567l-76 -262h-397zM479 1782h109q3 -57 39 -80q37 -25 104 -25q66 0 105 25q36 24 36 80h105q-9 -127 -70 -185q-61 -57 -178 -57
q-120 0 -180 59q-64 64 -70 183zM446 2142h224l145 -278h-123z" />
    <glyph glyph-name="aathhuyen" unicode="&#x1eb1;" horiz-adv-x="1352" 
d="M901 506q0 120 -63 186q-64 70 -172 70t-170 -68q-64 -70 -64 -188q0 -119 64 -187q61 -67 170 -67q108 0 171.5 67t63.5 187zM1214 1010v-1010h-327v164q-71 -105 -158.5 -154t-204.5 -49q-203 0 -323 148q-59 73 -90 172t-31 223q0 248 127 393t340 145q114 0 196 -49
q83 -47 142 -149v166h329zM508 1362h108q3 -56 39 -80q39 -25 105 -25t103.5 24.5t37.5 80.5h105q-11 -128 -70 -184q-31 -29 -76 -43.5t-102 -14.5q-121 0 -180 60q-64 64 -70 182zM475 1722h223l146 -278h-123z" />
    <glyph glyph-name="aahoahoi" unicode="&#x1eb2;" horiz-adv-x="1479" 
d="M543 547h397l-149 483q-5 13 -19 72q-17 69 -31 125q-14 -51 -24 -103q-16 -50 -27 -94zM-16 0l505 1464h500l506 -1464h-397l-74 262h-567l-76 -262h-397zM479 1782h109q3 -57 39 -80q37 -25 104 -25q66 0 105 25q36 24 36 80h105q-9 -127 -70 -185q-61 -57 -178 -57
q-120 0 -180 59q-64 64 -70 183zM786 1851h-135v158h39q44 0 60 12q16 15 16 45q0 25 -12 37q-15 15 -37 15q-25 0 -35 -9q-12 -12 -12 -36h-127q0 73 51 114q49 41 137 41q78 0 123 -45t45 -119q0 -61 -29 -98q-31 -37 -84 -37v-78z" />
    <glyph glyph-name="aathhoi" unicode="&#x1eb3;" horiz-adv-x="1352" 
d="M901 506q0 120 -63 186q-64 70 -172 70t-170 -68q-64 -70 -64 -188q0 -119 64 -187q61 -67 170 -67q108 0 171.5 67t63.5 187zM1214 1010v-1010h-327v164q-71 -105 -158.5 -154t-204.5 -49q-203 0 -323 148q-59 73 -90 172t-31 223q0 248 127 393t340 145q114 0 196 -49
q83 -47 142 -149v166h329zM508 1362h108q3 -56 39 -80q39 -25 105 -25t103.5 24.5t37.5 80.5h105q-11 -128 -70 -184q-31 -29 -76 -43.5t-102 -14.5q-121 0 -180 60q-64 64 -70 182zM815 1432h-135v157h39q45 0 59 13q17 13 17 45q0 24 -13 36q-14 15 -37 15t-34 -8
q-13 -13 -13 -37h-127q0 72 52 114q48 41 137 41q78 0 123 -45t45 -118q0 -62 -29 -99q-31 -37 -84 -37v-77z" />
    <glyph glyph-name="aahoanga" unicode="&#x1eb4;" horiz-adv-x="1479" 
d="M543 547h397l-149 483q-5 13 -19 72q-17 69 -31 125q-14 -51 -24 -103q-16 -50 -27 -94zM-16 0l505 1464h500l506 -1464h-397l-74 262h-567l-76 -262h-397zM479 1782h109q3 -57 39 -80q37 -25 104 -25q66 0 105 25q36 24 36 80h105q-9 -127 -70 -185q-61 -57 -178 -57
q-120 0 -180 59q-64 64 -70 183zM977 2116l-4 -5q-26 -104 -64 -147q-39 -49 -106 -49h-29h-24l-74 20q-33 11 -49 11q-25 0 -39 -13q-15 -15 -27 -49h-94q21 100 61 148q41 49 105 49h26q17 0 41 -6l74 -21h21h24q27 0 41 14q18 19 23 48h94z" />
    <glyph glyph-name="aathnga" unicode="&#x1eb5;" horiz-adv-x="1352" 
d="M901 506q0 120 -63 186q-64 70 -172 70t-170 -68q-64 -70 -64 -188q0 -119 64 -187q61 -67 170 -67q108 0 171.5 67t63.5 187zM1214 1010v-1010h-327v164q-71 -105 -158.5 -154t-204.5 -49q-203 0 -323 148q-59 73 -90 172t-31 223q0 248 127 393t340 145q114 0 196 -49
q83 -47 142 -149v166h329zM508 1362h108q3 -56 39 -80q39 -25 105 -25t103.5 24.5t37.5 80.5h105q-11 -128 -70 -184q-31 -29 -76 -43.5t-102 -14.5q-121 0 -180 60q-64 64 -70 182zM1006 1696l-5 -4q-24 -104 -63 -148q-40 -49 -107 -49h-28h-25l-73 21q-34 10 -50 10
q-23 0 -39 -13q-14 -14 -26 -49h-94q21 102 61 148q40 49 105 49h26q17 0 41 -6l74 -21h20h25q27 0 41 15q16 16 22 47h95z" />
    <glyph glyph-name="aahoanang" unicode="&#x1eb6;" horiz-adv-x="1479" 
d="M543 547h397l-149 483q-5 13 -19 72q-17 69 -31 125q-14 -51 -24 -103q-16 -50 -27 -94zM-16 0l505 1464h500l506 -1464h-397l-74 262h-567l-76 -262h-397zM479 1782h109q3 -57 39 -80q37 -25 104 -25q66 0 105 25q36 24 36 80h105q-9 -127 -70 -185q-61 -57 -178 -57
q-120 0 -180 59q-64 64 -70 183zM608 -272h2q0 54 39 92q40 39 94 39q55 0 97 -37q37 -39 37 -94q0 -56 -39 -97q-40 -39 -95 -39q-53 0 -96 41q-39 40 -39 95z" />
    <glyph glyph-name="aathnang" unicode="&#x1eb7;" horiz-adv-x="1352" 
d="M901 506q0 120 -63 186q-64 70 -172 70t-170 -68q-64 -70 -64 -188q0 -119 64 -187q61 -67 170 -67q108 0 171.5 67t63.5 187zM1214 1010v-1010h-327v164q-71 -105 -158.5 -154t-204.5 -49q-203 0 -323 148q-59 73 -90 172t-31 223q0 248 127 393t340 145q114 0 196 -49
q83 -47 142 -149v166h329zM508 1362h108q3 -56 39 -80q39 -25 105 -25t103.5 24.5t37.5 80.5h105q-11 -128 -70 -184q-31 -29 -76 -43.5t-102 -14.5q-121 0 -180 60q-64 64 -70 182zM555 -293h2q0 57 39 92q39 39 94 39q58 0 96 -37q37 -36 37 -94q0 -57 -39 -96
q-38 -39 -94 -39q-55 0 -96 41q-39 39 -39 94z" />
    <glyph glyph-name="ehoanang" unicode="&#x1eb8;" horiz-adv-x="1161" 
d="M156 0v1464h897v-321h-508v-254h479v-314h-479v-247h508v-328h-897zM451 -254h2q0 57 39 92q38 39 94 39t96 -37q37 -36 37 -94t-39 -96.5t-94 -38.5q-56 0 -97 41q-38 38 -38 94z" />
    <glyph glyph-name="ethnang" unicode="&#x1eb9;" horiz-adv-x="1251" 
d="M827 635q-9 84 -65 137t-137 53q-85 0 -138 -47q-55 -53 -69 -143h409zM1178 434h-768q3 -118 59 -180q58 -64 168 -64q80 0 137 31q58 33 84 90l268 -108q-47 -115 -170 -178q-122 -64 -299 -64q-264 0 -424 148q-159 144 -159 385q0 235 159 393q159 155 404 155
q250 0 395 -157q74 -81 110 -188.5t36 -245.5v-17zM471 -293h2q0 57 39 92q39 39 94 39q58 0 96 -37q37 -36 37 -94q0 -57 -39 -96q-38 -39 -94 -39q-55 0 -96 41q-39 39 -39 94z" />
    <glyph glyph-name="ehoahoi" unicode="&#x1eba;" horiz-adv-x="1161" 
d="M156 0v1464h897v-321h-508v-254h479v-314h-479v-247h508v-328h-897zM670 1565h-135v157h38q46 0 60 13q16 13 16 45q0 24 -12 37q-14 14 -37 14q-24 0 -35 -8q-12 -12 -12 -37h-127q0 73 51 114.5t137 41.5q78 0 123 -46q45 -44 45 -118q0 -61 -28 -99q-32 -37 -84 -37
v-77z" />
    <glyph glyph-name="ethhoi" unicode="&#x1ebb;" horiz-adv-x="1251" 
d="M827 635q-9 84 -65 137t-137 53q-85 0 -138 -47q-55 -53 -69 -143h409zM1178 434h-768q3 -118 59 -180q58 -64 168 -64q80 0 137 31q58 33 84 90l268 -108q-47 -115 -170 -178q-122 -64 -299 -64q-264 0 -424 148q-159 144 -159 385q0 235 159 393q159 155 404 155
q250 0 395 -157q74 -81 110 -188.5t36 -245.5v-17zM690 1143h-135v157h39q43 0 59 13q17 13 17 45q0 24 -13 37q-14 14 -36 14q-24 0 -35 -8q-13 -13 -13 -37h-127q0 72 52 115q50 41 137 41q76 0 123 -45q45 -46 45 -119q0 -62 -29 -99q-30 -36 -84 -36v-78z" />
    <glyph glyph-name="ehoanga" unicode="&#x1ebc;" horiz-adv-x="1161" 
d="M156 0v1464h897v-321h-508v-254h479v-314h-479v-247h508v-328h-897zM860 1798l-4 -4q-24 -102 -63 -147q-41 -50 -107 -50h-29h-24l-74 21q-34 10 -49 10q-24 0 -39 -12q-12 -12 -27 -49h-94q23 102 62 147q39 49 104 49h27q15 0 41 -6l73 -20h21h24q27 0 41 14
q17 15 23 47h94z" />
    <glyph glyph-name="ethnga" unicode="&#x1ebd;" horiz-adv-x="1251" 
d="M827 635q-9 84 -65 137t-137 53q-85 0 -138 -47q-55 -53 -69 -143h409zM1178 434h-768q3 -118 59 -180q58 -64 168 -64q80 0 137 31q58 33 84 90l268 -108q-47 -115 -170 -178q-122 -64 -299 -64q-264 0 -424 148q-159 144 -159 385q0 235 159 393q159 155 404 155
q250 0 395 -157q74 -81 110 -188.5t36 -245.5v-17zM881 1376l-4 -4q-27 -106 -64 -147q-40 -49 -106 -49h-29h-25l-73 20q-34 10 -50 10q-23 0 -38 -12q-14 -12 -27 -49h-94q21 101 61 147q40 49 105 49h26q17 0 41 -6l74 -20h20h25q27 0 41 14q16 16 22 47h95z" />
    <glyph glyph-name="ebhoasac" unicode="&#x1ebe;" horiz-adv-x="1161" 
d="M156 0v1464h897v-321h-508v-254h479v-314h-479v-247h508v-328h-897zM309 1526l160 278h248l164 -278h-138l-147 143l-150 -143h-137zM1206 1980l-245 -278h-123l145 278h223z" />
    <glyph glyph-name="ebthsac" unicode="&#x1ebf;" horiz-adv-x="1251" 
d="M827 635q-9 84 -65 137t-137 53q-85 0 -138 -47q-55 -53 -69 -143h409zM1178 434h-768q3 -118 59 -180q58 -64 168 -64q80 0 137 31q58 33 84 90l268 -108q-47 -115 -170 -178q-122 -64 -299 -64q-264 0 -424 148q-159 144 -159 385q0 235 159 393q159 155 404 155
q250 0 395 -157q74 -81 110 -188.5t36 -245.5v-17zM338 1100l160 278h247l164 -278h-137l-147 143l-150 -143h-137zM1235 1554l-246 -278h-123l146 278h223z" />
    <glyph glyph-name="ebhoahuyen" unicode="&#x1ec0;" horiz-adv-x="1161" 
d="M156 0v1464h897v-321h-508v-254h479v-314h-479v-247h508v-328h-897zM309 1526l160 278h248l164 -278h-138l-147 143l-150 -143h-137zM635 2073h223l146 -279h-123z" />
    <glyph glyph-name="ebthhuyen" unicode="&#x1ec1;" horiz-adv-x="1251" 
d="M827 635q-9 84 -65 137t-137 53q-85 0 -138 -47q-55 -53 -69 -143h409zM1178 434h-768q3 -118 59 -180q58 -64 168 -64q80 0 137 31q58 33 84 90l268 -108q-47 -115 -170 -178q-122 -64 -299 -64q-264 0 -424 148q-159 144 -159 385q0 235 159 393q159 155 404 155
q250 0 395 -157q74 -81 110 -188.5t36 -245.5v-17zM338 1100l160 278h247l164 -278h-137l-147 143l-150 -143h-137zM664 1647h223l145 -279h-123z" />
    <glyph glyph-name="ebhoahoi" unicode="&#x1ec2;" horiz-adv-x="1161" 
d="M156 0v1464h897v-321h-508v-254h479v-314h-479v-247h508v-328h-897zM309 1526l160 278h248l164 -278h-138l-147 143l-150 -143h-137zM975 1720h-135v158h39q45 0 59 12q16 15 16 45q0 25 -12 37q-15 15 -37 15q-23 0 -35 -9q-12 -12 -12 -36h-127q0 72 51 114
q49 41 138 41q78 0 122 -45q45 -45 45 -119q0 -60 -28 -98q-31 -37 -84 -37v-78z" />
    <glyph glyph-name="ebthhoi" unicode="&#x1ec3;" horiz-adv-x="1251" 
d="M827 635q-9 84 -65 137t-137 53q-85 0 -138 -47q-55 -53 -69 -143h409zM1178 434h-768q3 -118 59 -180q58 -64 168 -64q80 0 137 31q58 33 84 90l268 -108q-47 -115 -170 -178q-122 -64 -299 -64q-264 0 -424 148q-159 144 -159 385q0 235 159 393q159 155 404 155
q250 0 395 -157q74 -81 110 -188.5t36 -245.5v-17zM338 1100l160 278h247l164 -278h-137l-147 143l-150 -143h-137zM1004 1294h-136v158h39q44 0 60 12q16 15 16 45q0 25 -12 37q-15 15 -37 15q-25 0 -35 -9q-12 -12 -12 -36h-127q0 73 51 114q49 41 137 41q78 0 123 -45
t45 -119q0 -61 -29.5 -98t-82.5 -37v-78z" />
    <glyph glyph-name="ebhoanga" unicode="&#x1ec4;" horiz-adv-x="1161" 
d="M156 0v1464h897v-321h-508v-254h479v-314h-479v-247h508v-328h-897zM309 1526l160 278h248l164 -278h-138l-147 143l-150 -143h-137zM827 2118l-4 -4q-24 -101 -63 -148q-40 -49 -107 -49h-28h-25l-74 20q-32 11 -49 11q-23 0 -39 -13q-14 -14 -26 -49h-95q23 103 62 148
q41 49 104 49h27q17 0 41 -6l74 -21h20h25q26 0 41 15q16 16 22 47h94z" />
    <glyph glyph-name="ebthnga" unicode="&#x1ec5;" horiz-adv-x="1251" 
d="M827 635q-9 84 -65 137t-137 53q-85 0 -138 -47q-55 -53 -69 -143h409zM1178 434h-768q3 -118 59 -180q58 -64 168 -64q80 0 137 31q58 33 84 90l268 -108q-47 -115 -170 -178q-122 -64 -299 -64q-264 0 -424 148q-159 144 -159 385q0 235 159 393q159 155 404 155
q250 0 395 -157q74 -81 110 -188.5t36 -245.5v-17zM338 1100l160 278h247l164 -278h-137l-147 143l-150 -143h-137zM856 1692l-4 -4q-24 -102 -64 -148q-39 -49 -106 -49h-29h-24l-74 20q-33 11 -49 11q-25 0 -39 -13q-13 -13 -27 -49h-94q21 101 62 148q40 49 104 49h27
q15 0 41 -6l73 -21h21h24q27 0 41 15q17 15 23 47h94z" />
    <glyph glyph-name="ebhoanang" unicode="&#x1ec6;" horiz-adv-x="1161" 
d="M156 0v1464h897v-321h-508v-254h479v-314h-479v-247h508v-328h-897zM309 1526l160 278h248l164 -278h-138l-147 143l-150 -143h-137zM428 -252h2q0 57 39 92q39 39 94 39q58 0 96 -37q37 -36 37 -94t-39 -96q-38 -39 -94 -39q-55 0 -96 41q-39 39 -39 94z" />
    <glyph glyph-name="ebthnang" unicode="&#x1ec7;" horiz-adv-x="1251" 
d="M827 635q-9 84 -65 137t-137 53q-85 0 -138 -47q-55 -53 -69 -143h409zM1178 434h-768q3 -118 59 -180q58 -64 168 -64q80 0 137 31q58 33 84 90l268 -108q-47 -115 -170 -178q-122 -64 -299 -64q-264 0 -424 148q-159 144 -159 385q0 235 159 393q159 155 404 155
q250 0 395 -157q74 -81 110 -188.5t36 -245.5v-17zM338 1100l160 278h247l164 -278h-137l-147 143l-150 -143h-137zM457 -279h2q0 57 39 93q39 39 94 39q56 0 96 -37q37 -37 37 -95q0 -57 -39.5 -96t-93.5 -39q-55 0 -96 41q-39 39 -39 94z" />
    <glyph glyph-name="ihoahoi" unicode="&#x1ec8;" horiz-adv-x="735" 
d="M166 0v1464h403v-1464h-403zM432 1585h-135v158h39q45 0 59 12q17 13 17 45q0 25 -13 37q-14 14 -37 14t-34 -8q-13 -12 -13 -37h-127q0 72 52 115q48 41 137 41q78 0 123 -45.5t45 -118.5q0 -62 -29.5 -98.5t-83.5 -36.5v-78z" />
    <glyph glyph-name="ithhoi" unicode="&#x1ec9;" horiz-adv-x="639" 
d="M123 0v1010h356v-1010h-356zM362 1159h-135v158h39q44 0 60 12q16 13 16 45q0 25 -12 37q-15 14 -37 14q-24 0 -35 -8q-12 -12 -12 -37h-127q0 73 51 115q49 41 137 41q78 0 123 -45t45 -119q0 -62 -29.5 -98.5t-83.5 -36.5v-78z" />
    <glyph glyph-name="ihoanang" unicode="&#x1eca;" horiz-adv-x="735" 
d="M166 0v1464h403v-1464h-403zM233 -254h3q0 57 38 92q39 39 95 39t96 -37q37 -37 37 -94t-39 -96t-94 -39q-56 0 -97 41q-39 39 -39 94z" />
    <glyph glyph-name="ithnang" unicode="&#x1ecb;" horiz-adv-x="639" 
d="M123 0v1010h356v-1010h-356zM168 1270h2q0 56 39 92q39 39 94 39q58 0 95.5 -37t37.5 -94q0 -58 -39 -96q-38 -39 -94 -39q-57 0 -96 41q-39 38 -39 94zM160 -281h2q0 57 39 93q38 38 94 38q57 0 96 -36q37 -37 37 -95q0 -57 -39.5 -96t-93.5 -39q-55 0 -96 41
q-39 39 -39 94z" />
    <glyph glyph-name="ohoanang" unicode="&#x1ecc;" horiz-adv-x="1753" 
d="M1659 729q0 -159 -57 -297q-57 -135 -170 -246q-112 -108 -256 -166q-151 -59 -299 -59q-150 0 -299 59q-147 59 -254 166q-108 103 -170 248q-60 142 -60 295t60 295q62 145 170 248q110 110 254 168q140 57 299 57t301 -57.5t253.5 -167.5t170.5 -248q57 -138 57 -295z
M877 299q165 0 276 123q55 61 81 137t26 170q0 183 -109 307q-111 123 -274 123q-167 0 -275 -123t-108 -307q0 -191 106 -309q109 -121 277 -121zM723 -293h2q0 57 39 92q39 39 94 39q58 0 96 -37q37 -36 37 -94q0 -57 -39 -96q-38 -39 -94 -39q-57 0 -96 41q-39 39 -39 94
z" />
    <glyph glyph-name="othnang" unicode="&#x1ecd;" horiz-adv-x="1276" 
d="M848 502q0 113 -57 178q-59 65 -154 65q-98 0 -154 -65q-57 -63 -57 -178q0 -112 55 -176q60 -66 156 -66t156 66q55 66 55 176zM1202 502q0 -111 -43 -207q-45 -102 -123 -176q-88 -82 -182 -119q-98 -39 -217 -39q-120 0 -217 39q-99 39 -182.5 118.5t-120.5 176.5
q-43 93 -43 207q0 111 43 209q40 99 121 176q79 76 182 117q98 38 217 38q118 0 217 -38q103 -41 182 -117q83 -75 123 -176q43 -98 43 -209zM483 -293h2q0 56 39 92q39 39 94 39q57 0 97 -37q37 -37 37 -94q0 -55 -39 -96q-39 -39 -95 -39q-55 0 -96 41q-39 40 -39 94z" />
    <glyph glyph-name="ohoahoi" unicode="&#x1ece;" horiz-adv-x="1753" 
d="M1659 729q0 -159 -57 -297q-57 -135 -170 -246q-112 -108 -256 -166q-151 -59 -299 -59q-150 0 -299 59q-147 59 -254 166q-108 103 -170 248q-60 142 -60 295t60 295q62 145 170 248q110 110 254 168q140 57 299 57t301 -57.5t253.5 -167.5t170.5 -248q57 -138 57 -295z
M877 299q165 0 276 123q55 61 81 137t26 170q0 183 -109 307q-111 123 -274 123q-167 0 -275 -123t-108 -307q0 -191 106 -309q109 -121 277 -121zM942 1597h-135v158h39q45 0 59 12q17 14 17 45q0 25 -13 37q-14 15 -37 15q-24 0 -34 -9q-13 -12 -13 -36h-127q0 72 52 114
q48 41 137 41q78 0 123 -45.5t45 -118.5q0 -61 -29 -98q-31 -37 -84 -37v-78z" />
    <glyph glyph-name="othhoi" unicode="&#x1ecf;" horiz-adv-x="1276" 
d="M848 502q0 113 -57 178q-59 65 -154 65q-98 0 -154 -65q-57 -63 -57 -178q0 -112 55 -176q60 -66 156 -66t156 66q55 66 55 176zM1202 502q0 -111 -43 -207q-45 -102 -123 -176q-88 -82 -182 -119q-98 -39 -217 -39q-120 0 -217 39q-99 39 -182.5 118.5t-120.5 176.5
q-43 93 -43 207q0 111 43 209q40 99 121 176q79 76 182 117q98 38 217 38q118 0 217 -38q103 -41 182 -117q83 -75 123 -176q43 -98 43 -209zM702 1143h-135v157h39q43 0 59.5 13t16.5 45q0 24 -12 37q-15 14 -37 14q-24 0 -35 -8q-12 -12 -12 -37h-127q0 73 51 114.5
t137 41.5q76 0 123 -45q45 -45 45 -119q0 -62 -29 -99q-30 -36 -84 -36v-78z" />
    <glyph glyph-name="obhoasac" unicode="&#x1ed0;" horiz-adv-x="1753" 
d="M1659 729q0 -159 -57 -297q-57 -135 -170 -246q-112 -108 -256 -166q-151 -59 -299 -59q-150 0 -299 59q-147 59 -254 166q-108 103 -170 248q-60 142 -60 295t60 295q62 145 170 248q110 110 254 168q140 57 299 57t301 -57.5t253.5 -167.5t170.5 -248q57 -138 57 -295z
M877 299q165 0 276 123q55 61 81 137t26 170q0 183 -109 307q-111 123 -274 123q-167 0 -275 -123t-108 -307q0 -191 106 -309q109 -121 277 -121zM600 1559l160 278h248l163 -278h-137l-147 143l-150 -143h-137zM1497 2013l-246 -278h-123l146 278h223z" />
    <glyph glyph-name="obthsac" unicode="&#x1ed1;" horiz-adv-x="1276" 
d="M848 502q0 113 -57 178q-59 65 -154 65q-98 0 -154 -65q-57 -63 -57 -178q0 -112 55 -176q60 -66 156 -66t156 66q55 66 55 176zM1202 502q0 -111 -43 -207q-45 -102 -123 -176q-88 -82 -182 -119q-98 -39 -217 -39q-120 0 -217 39q-99 39 -182.5 118.5t-120.5 176.5
q-43 93 -43 207q0 111 43 209q40 99 121 176q79 76 182 117q98 38 217 38q118 0 217 -38q103 -41 182 -117q83 -75 123 -176q43 -98 43 -209zM352 1106l160 278h248l164 -278h-138l-147 143l-150 -143h-137zM1249 1561l-245 -279h-123l145 279h223z" />
    <glyph glyph-name="obhoahuyen" unicode="&#x1ed2;" horiz-adv-x="1753" 
d="M1659 729q0 -159 -57 -297q-57 -135 -170 -246q-112 -108 -256 -166q-151 -59 -299 -59q-150 0 -299 59q-147 59 -254 166q-108 103 -170 248q-60 142 -60 295t60 295q62 145 170 248q110 110 254 168q140 57 299 57t301 -57.5t253.5 -167.5t170.5 -248q57 -138 57 -295z
M877 299q165 0 276 123q55 61 81 137t26 170q0 183 -109 307q-111 123 -274 123q-167 0 -275 -123t-108 -307q0 -191 106 -309q109 -121 277 -121zM600 1559l160 278h248l163 -278h-137l-147 143l-150 -143h-137zM926 2105h223l145 -278h-123z" />
    <glyph glyph-name="obthhuyen" unicode="&#x1ed3;" horiz-adv-x="1276" 
d="M848 502q0 113 -57 178q-59 65 -154 65q-98 0 -154 -65q-57 -63 -57 -178q0 -112 55 -176q60 -66 156 -66t156 66q55 66 55 176zM1202 502q0 -111 -43 -207q-45 -102 -123 -176q-88 -82 -182 -119q-98 -39 -217 -39q-120 0 -217 39q-99 39 -182.5 118.5t-120.5 176.5
q-43 93 -43 207q0 111 43 209q40 99 121 176q79 76 182 117q98 38 217 38q118 0 217 -38q103 -41 182 -117q83 -75 123 -176q43 -98 43 -209zM352 1106l160 278h248l164 -278h-138l-147 143l-150 -143h-137zM678 1653h223l146 -279h-123z" />
    <glyph glyph-name="obhoahoi" unicode="&#x1ed4;" horiz-adv-x="1753" 
d="M1659 729q0 -159 -57 -297q-57 -135 -170 -246q-112 -108 -256 -166q-151 -59 -299 -59q-150 0 -299 59q-147 59 -254 166q-108 103 -170 248q-60 142 -60 295t60 295q62 145 170 248q110 110 254 168q140 57 299 57t301 -57.5t253.5 -167.5t170.5 -248q57 -138 57 -295z
M877 299q165 0 276 123q55 61 81 137t26 170q0 183 -109 307q-111 123 -274 123q-167 0 -275 -123t-108 -307q0 -191 106 -309q109 -121 277 -121zM600 1559l160 278h248l163 -278h-137l-147 143l-150 -143h-137zM1266 1753h-136v158h39q46 0 60 12q16 13 16 45q0 25 -12 37
q-14 14 -37 14q-24 0 -35 -8q-12 -12 -12 -37h-127q0 73 51 115q49 41 137 41q79 0 123 -45q45 -45 45 -119q0 -62 -28 -98q-31 -37 -84 -37v-78z" />
    <glyph glyph-name="obthhoi" unicode="&#x1ed5;" horiz-adv-x="1276" 
d="M848 502q0 113 -57 178q-59 65 -154 65q-98 0 -154 -65q-57 -63 -57 -178q0 -112 55 -176q60 -66 156 -66t156 66q55 66 55 176zM1202 502q0 -111 -43 -207q-45 -102 -123 -176q-88 -82 -182 -119q-98 -39 -217 -39q-120 0 -217 39q-99 39 -182.5 118.5t-120.5 176.5
q-43 93 -43 207q0 111 43 209q40 99 121 176q79 76 182 117q98 38 217 38q118 0 217 -38q103 -41 182 -117q83 -75 123 -176q43 -98 43 -209zM352 1106l160 278h248l164 -278h-138l-147 143l-150 -143h-137zM1018 1300h-135v158h39q45 0 59 12q16 15 16 46q0 24 -12 36
q-14 15 -37 15t-35 -8q-12 -13 -12 -37h-127q0 72 51 114q49 41 138 41q78 0 122 -45q45 -44 45 -119q0 -60 -28 -98q-32 -37 -84 -37v-78z" />
    <glyph glyph-name="obhoanga" unicode="&#x1ed6;" horiz-adv-x="1753" 
d="M1659 729q0 -159 -57 -297q-57 -135 -170 -246q-112 -108 -256 -166q-151 -59 -299 -59q-150 0 -299 59q-147 59 -254 166q-108 103 -170 248q-60 142 -60 295t60 295q62 145 170 248q110 110 254 168q140 57 299 57t301 -57.5t253.5 -167.5t170.5 -248q57 -138 57 -295z
M877 299q165 0 276 123q55 61 81 137t26 170q0 183 -109 307q-111 123 -274 123q-167 0 -275 -123t-108 -307q0 -191 106 -309q109 -121 277 -121zM600 1559l160 278h248l163 -278h-137l-147 143l-150 -143h-137zM1118 2150l-4 -4q-24 -100 -63 -147q-40 -49 -107 -49h-29
h-24l-74 20q-32 10 -49 10q-24 0 -39 -12q-13 -13 -27 -49h-94q23 103 62 147q39 50 104 50h27q17 0 41 -7l73 -20h21h25q26 0 40 14q17 17 23 47h94z" />
    <glyph glyph-name="obthnga" unicode="&#x1ed7;" horiz-adv-x="1276" 
d="M848 502q0 113 -57 178q-59 65 -154 65q-98 0 -154 -65q-57 -63 -57 -178q0 -112 55 -176q60 -66 156 -66t156 66q55 66 55 176zM1202 502q0 -111 -43 -207q-45 -102 -123 -176q-88 -82 -182 -119q-98 -39 -217 -39q-120 0 -217 39q-99 39 -182.5 118.5t-120.5 176.5
q-43 93 -43 207q0 111 43 209q40 99 121 176q79 76 182 117q98 38 217 38q118 0 217 -38q103 -41 182 -117q83 -75 123 -176q43 -98 43 -209zM352 1106l160 278h248l164 -278h-138l-147 143l-150 -143h-137zM870 1698l-4 -4q-24 -101 -63 -148q-40 -49 -107 -49h-28h-25
l-74 21q-32 10 -49 10q-22 0 -39 -12q-14 -15 -26 -50h-95q23 103 62 148q40 49 104 49h27q17 0 41 -6l74 -21h20h25q26 0 41 15q16 16 22 47h94z" />
    <glyph glyph-name="obhoanang" unicode="&#x1ed8;" horiz-adv-x="1753" 
d="M1659 729q0 -159 -57 -297q-57 -135 -170 -246q-112 -108 -256 -166q-151 -59 -299 -59q-150 0 -299 59q-147 59 -254 166q-108 103 -170 248q-60 142 -60 295t60 295q62 145 170 248q110 110 254 168q140 57 299 57t301 -57.5t253.5 -167.5t170.5 -248q57 -138 57 -295z
M877 299q165 0 276 123q55 61 81 137t26 170q0 183 -109 307q-111 123 -274 123q-167 0 -275 -123t-108 -307q0 -191 106 -309q109 -121 277 -121zM600 1559l160 278h248l163 -278h-137l-147 143l-150 -143h-137zM719 -291h2q0 57 39 92q38 39 94 39q58 0 96 -37
q37 -36 37 -94q0 -57 -39 -96q-38 -39 -94 -39q-57 0 -96 41q-39 39 -39 94z" />
    <glyph glyph-name="obthnang" unicode="&#x1ed9;" horiz-adv-x="1276" 
d="M848 502q0 113 -57 178q-59 65 -154 65q-98 0 -154 -65q-57 -63 -57 -178q0 -112 55 -176q60 -66 156 -66t156 66q55 66 55 176zM1202 502q0 -111 -43 -207q-45 -102 -123 -176q-88 -82 -182 -119q-98 -39 -217 -39q-120 0 -217 39q-99 39 -182.5 118.5t-120.5 176.5
q-43 93 -43 207q0 111 43 209q40 99 121 176q79 76 182 117q98 38 217 38q118 0 217 -38q103 -41 182 -117q83 -75 123 -176q43 -98 43 -209zM352 1106l160 278h248l164 -278h-138l-147 143l-150 -143h-137zM481 -293h2q0 56 39 92q39 39 94 39q57 0 97 -37q37 -37 37 -94
q0 -55 -39 -96q-39 -39 -95 -39q-55 0 -96 41q-39 40 -39 94z" />
    <glyph glyph-name="ochoasac" unicode="&#x1eda;" horiz-adv-x="1753" 
d="M1659 729l-2 2q0 -160 -58 -297q-55 -134 -169 -246q-113 -108 -256 -165q-149 -60 -300 -60q-150 0 -299 60q-146 58 -253 165q-111 105 -170.5 247.5t-59.5 295.5t60 295q59 143 170 248q107 109 253 168q142 57 299 57q160 0 302 -57q145 -59 254 -168
q77 -71 118 -160q55 14 88 51t48.5 105t15.5 172v57h147q-3 -259 -71.5 -367t-173.5 -108q57 -138 57 -295zM874 301q166 0 277 123q106 118 106 307q0 184 -108 307q-111 123 -275 123q-166 0 -274 -123t-108 -307q0 -191 106 -309q109 -121 276 -121zM1182 1880l-246 -278
h-123l145 278h224z" />
    <glyph glyph-name="octhsac" unicode="&#x1edb;" horiz-adv-x="1276" 
d="M848 502q0 113 -57 178q-59 65 -154 65q-98 0 -154 -65q-57 -63 -57 -178q0 -112 55 -176q60 -66 156 -66t156 66q55 66 55 176zM1202 502l4 2q0 -111 -43 -207q-42 -100 -123 -176q-88 -82 -182 -119q-97 -39 -217 -39q-119 0 -217.5 39t-182 118.5t-120.5 176.5
q-43 93 -43 207q0 111 43 209q40 99 121 176q79 76 182 117q99 38 217 38q119 0 217 -38q103 -41 182 -117q57 -44 82 -103q47 9 71 62t24 192l149 2q0 -170 -52 -253.5t-145 -94.5q16 -35 24.5 -85.5t8.5 -106.5zM887 1446l-246 -279h-123l146 279h223z" />
    <glyph glyph-name="ochoahuyen" unicode="&#x1edc;" horiz-adv-x="1753" 
d="M1659 729l-2 2q0 -160 -58 -297q-55 -134 -169 -246q-113 -108 -256 -165q-149 -60 -300 -60q-150 0 -299 60q-146 58 -253 165q-111 105 -170.5 247.5t-59.5 295.5t60 295q59 143 170 248q107 109 253 168q142 57 299 57q160 0 302 -57q145 -59 254 -168
q77 -71 118 -160q55 14 88 51t48.5 105t15.5 172v57h147q-3 -259 -71.5 -367t-173.5 -108q57 -138 57 -295zM874 301q166 0 277 123q106 118 106 307q0 184 -108 307q-111 123 -275 123q-166 0 -274 -123t-108 -307q0 -191 106 -309q109 -121 276 -121zM641 1880h223
l146 -278h-123z" />
    <glyph glyph-name="octhhuyen" unicode="&#x1edd;" horiz-adv-x="1276" 
d="M848 502q0 113 -57 178q-59 65 -154 65q-98 0 -154 -65q-57 -63 -57 -178q0 -112 55 -176q60 -66 156 -66t156 66q55 66 55 176zM1202 502l4 2q0 -111 -43 -207q-42 -100 -123 -176q-88 -82 -182 -119q-97 -39 -217 -39q-119 0 -217.5 39t-182 118.5t-120.5 176.5
q-43 93 -43 207q0 111 43 209q40 99 121 176q79 76 182 117q99 38 217 38q119 0 217 -38q103 -41 182 -117q57 -44 82 -103q47 9 71 62t24 192l149 2q0 -170 -52 -253.5t-145 -94.5q16 -35 24.5 -85.5t8.5 -106.5zM438 1425h224l145 -278h-123z" />
    <glyph glyph-name="ochoahoi" unicode="&#x1ede;" horiz-adv-x="1753" 
d="M1659 729l-2 2q0 -160 -58 -297q-55 -134 -169 -246q-113 -108 -256 -165q-149 -60 -300 -60q-150 0 -299 60q-146 58 -253 165q-111 105 -170.5 247.5t-59.5 295.5t60 295q59 143 170 248q107 109 253 168q142 57 299 57q160 0 302 -57q145 -59 254 -168
q77 -71 118 -160q55 14 88 51t48.5 105t15.5 172v57h147q-3 -259 -71.5 -367t-173.5 -108q57 -138 57 -295zM874 301q166 0 277 123q106 118 106 307q0 184 -108 307q-111 123 -275 123q-166 0 -274 -123t-108 -307q0 -191 106 -309q109 -121 276 -121zM940 1599h-135v158
h39q45 0 59 12q17 16 17 46q0 24 -13 36q-14 15 -37 15t-34 -8q-13 -13 -13 -37h-127q0 72 52 114q48 41 137 41q78 0 123 -45t45 -119q0 -59 -29 -98q-31 -37 -84 -37v-78z" />
    <glyph glyph-name="octhhoi" unicode="&#x1edf;" horiz-adv-x="1276" 
d="M848 502q0 113 -57 178q-59 65 -154 65q-98 0 -154 -65q-57 -63 -57 -178q0 -112 55 -176q60 -66 156 -66t156 66q55 66 55 176zM1202 502l4 2q0 -111 -43 -207q-42 -100 -123 -176q-88 -82 -182 -119q-97 -39 -217 -39q-119 0 -217.5 39t-182 118.5t-120.5 176.5
q-43 93 -43 207q0 111 43 209q40 99 121 176q79 76 182 117q99 38 217 38q119 0 217 -38q103 -41 182 -117q57 -44 82 -103q47 9 71 62t24 192l149 2q0 -170 -52 -253.5t-145 -94.5q16 -35 24.5 -85.5t8.5 -106.5zM707 1145h-136v158h39q44 0 60 12q16 13 16 45q0 24 -12 37
q-14 14 -37 14q-24 0 -35 -8q-12 -12 -12 -37h-127q0 73 51 114.5t137 41.5q76 0 123 -45q45 -45 45 -119q0 -62 -28 -98q-31 -37 -84 -37v-78z" />
    <glyph glyph-name="ochoanga" unicode="&#x1ee0;" horiz-adv-x="1753" 
d="M1659 729l-2 2q0 -160 -58 -297q-55 -134 -169 -246q-113 -108 -256 -165q-149 -60 -300 -60q-150 0 -299 60q-146 58 -253 165q-111 105 -170.5 247.5t-59.5 295.5t60 295q59 143 170 248q107 109 253 168q142 57 299 57q160 0 302 -57q145 -59 254 -168
q77 -71 118 -160q55 14 88 51t48.5 105t15.5 172v57h147q-3 -259 -71.5 -367t-173.5 -108q57 -138 57 -295zM874 301q166 0 277 123q106 118 106 307q0 184 -108 307q-111 123 -275 123q-166 0 -274 -123t-108 -307q0 -191 106 -309q109 -121 276 -121zM1130 1833l-4 -4
q-24 -104 -63 -148q-41 -49 -107 -49h-28h-25l-74 21q-32 10 -49 10q-22 0 -39 -12q-14 -15 -26 -49h-94q21 101 61 147q40 49 104 49h27q17 0 41 -6l74 -20h20h25q27 0 41 14q16 16 22 47h94z" />
    <glyph glyph-name="octhnga" unicode="&#x1ee1;" horiz-adv-x="1276" 
d="M848 502q0 113 -57 178q-59 65 -154 65q-98 0 -154 -65q-57 -63 -57 -178q0 -112 55 -176q60 -66 156 -66t156 66q55 66 55 176zM1202 502l4 2q0 -111 -43 -207q-42 -100 -123 -176q-88 -82 -182 -119q-97 -39 -217 -39q-119 0 -217.5 39t-182 118.5t-120.5 176.5
q-43 93 -43 207q0 111 43 209q40 99 121 176q79 76 182 117q99 38 217 38q119 0 217 -38q103 -41 182 -117q57 -44 82 -103q47 9 71 62t24 192l149 2q0 -170 -52 -253.5t-145 -94.5q16 -35 24.5 -85.5t8.5 -106.5zM897 1378l-4 -4q-25 -103 -64 -147q-39 -49 -106 -49h-29
h-24l-74 20q-34 10 -49 10q-24 0 -39 -12q-14 -14 -27 -49h-94q21 102 62 147q39 49 104 49h27q15 0 41 -6l73 -20h21h24q27 0 41 14q17 15 23 47h94z" />
    <glyph glyph-name="ochoanang" unicode="&#x1ee2;" horiz-adv-x="1753" 
d="M1659 729l-2 2q0 -160 -58 -297q-55 -134 -169 -246q-113 -108 -256 -165q-149 -60 -300 -60q-150 0 -299 60q-146 58 -253 165q-111 105 -170.5 247.5t-59.5 295.5t60 295q59 143 170 248q107 109 253 168q142 57 299 57q160 0 302 -57q145 -59 254 -168
q77 -71 118 -160q55 14 88 51t48.5 105t15.5 172v57h147q-3 -259 -71.5 -367t-173.5 -108q57 -138 57 -295zM874 301q166 0 277 123q106 118 106 307q0 184 -108 307q-111 123 -275 123q-166 0 -274 -123t-108 -307q0 -191 106 -309q109 -121 276 -121zM721 -291h2
q0 57 39 92q38 39 94 39q58 0 96 -37q37 -36 37 -94q0 -57 -39 -96q-38 -39 -94 -39q-57 0 -96 41q-39 39 -39 94z" />
    <glyph glyph-name="octhnang" unicode="&#x1ee3;" horiz-adv-x="1276" 
d="M848 502q0 113 -57 178q-59 65 -154 65q-98 0 -154 -65q-57 -63 -57 -178q0 -112 55 -176q60 -66 156 -66t156 66q55 66 55 176zM1202 502l4 2q0 -111 -43 -207q-42 -100 -123 -176q-88 -82 -182 -119q-97 -39 -217 -39q-119 0 -217.5 39t-182 118.5t-120.5 176.5
q-43 93 -43 207q0 111 43 209q40 99 121 176q79 76 182 117q99 38 217 38q119 0 217 -38q103 -41 182 -117q57 -44 82 -103q47 9 71 62t24 192l149 2q0 -170 -52 -253.5t-145 -94.5q16 -35 24.5 -85.5t8.5 -106.5zM487 -291h2q0 56 39 92q39 39 95 39t96 -37q37 -37 37 -94
q0 -55 -39 -96q-39 -39 -94 -39q-56 0 -97 41q-39 40 -39 94z" />
    <glyph glyph-name="uhoanang" unicode="&#x1ee4;" horiz-adv-x="1597" 
d="M145 1464h400v-712q0 -163 8 -226q10 -75 27 -114q21 -57 79 -84q58 -31 140 -31q81 0 139 31q53 26 80 84q16 40 26 114q9 60 9 226v100v612h397v-774q0 -238 -29 -354q-27 -115 -98 -197q-78 -91 -207 -133q-128 -45 -317 -45q-193 0 -318 45q-127 42 -207 133
q-69 80 -98 197q-31 118 -31 354v152v622zM643 -293h2q0 57 39 92q39 39 94 39q58 0 96 -37q37 -36 37 -94q0 -57 -39 -96q-38 -39 -94 -39q-55 0 -96 41q-39 39 -39 94z" />
    <glyph glyph-name="uthnang" unicode="&#x1ee5;" horiz-adv-x="1292" 
d="M1167 1010v-516q0 -173 -26 -252q-28 -82 -94 -148q-63 -66 -166 -100q-98 -33 -236 -33q-137 0 -233 33q-99 32 -170 100q-65 62 -92 146q-27 78 -27 254v516h340v-539q0 -127 43 -182q39 -58 135 -58q95 0 136.5 56t41.5 184v539h348zM492 -293h2q0 57 38 92
q39 39 95 39t96 -37q37 -36 37 -94q0 -57 -39 -96t-94 -39q-56 0 -97 41q-38 39 -38 94z" />
    <glyph glyph-name="uhoahoi" unicode="&#x1ee6;" horiz-adv-x="1597" 
d="M145 1464h400v-712q0 -163 8 -226q10 -75 27 -114q21 -57 79 -84q58 -31 140 -31q81 0 139 31q53 26 80 84q16 40 26 114q9 60 9 226v100v612h397v-774q0 -238 -29 -354q-27 -115 -98 -197q-78 -91 -207 -133q-128 -45 -317 -45q-193 0 -318 45q-127 42 -207 133
q-69 80 -98 197q-31 118 -31 354v152v622zM862 1565h-135v157h39q45 0 59 13q17 13 17 45q0 24 -13 37q-14 14 -36 14q-24 0 -35 -8q-13 -13 -13 -37h-127q0 72 52 115q51 41 137 41q77 0 123 -46q45 -44 45 -118q0 -62 -29 -99q-31 -37 -84 -37v-77z" />
    <glyph glyph-name="uthhoi" unicode="&#x1ee7;" horiz-adv-x="1292" 
d="M1167 1010v-516q0 -173 -26 -252q-28 -82 -94 -148q-63 -66 -166 -100q-98 -33 -236 -33q-137 0 -233 33q-99 32 -170 100q-65 62 -92 146q-27 78 -27 254v516h340v-539q0 -127 43 -182q39 -58 135 -58q95 0 136.5 56t41.5 184v539h348zM711 1110h-136v158h39q46 0 60 12
q16 13 16 45q0 25 -12 37q-14 14 -37 14q-24 0 -35 -8q-12 -12 -12 -37h-127q0 73 51 115q49 41 137 41q79 0 123 -45q45 -45 45 -119q0 -62 -28 -98q-31 -37 -84 -37v-78z" />
    <glyph glyph-name="uchoasac" unicode="&#x1ee8;" horiz-adv-x="1597" 
d="M145 1464h400v-712q0 -163 8 -226q10 -75 27 -114q21 -57 79 -84q58 -31 140 -31q81 0 139 31q53 26 80 84q16 40 26 114q9 60 9 226v100v612h397v-366q54 14 77 77.5t23 206.5q0 24 -0.5 40.5t-1.5 35.5h148q-3 -259 -71.5 -367t-174.5 -108v-293q0 -238 -29 -354
q-27 -115 -98 -197q-78 -91 -207 -133q-128 -45 -317 -45q-193 0 -318 45q-127 42 -207 133q-69 80 -98 197q-31 118 -31 354v152v622zM1104 1845l-246 -278h-123l146 278h223z" />
    <glyph glyph-name="ucthsac" unicode="&#x1ee9;" horiz-adv-x="1292" 
d="M1167 1010v-260q42 7 65 61t23 193h148q0 -179 -66.5 -264t-169.5 -85v-161q0 -173 -26 -252q-28 -82 -94 -148q-63 -66 -166 -100q-98 -33 -236 -33q-137 0 -233 33q-99 32 -170 100q-65 62 -92 146q-27 78 -27 254v516h340v-539q0 -127 43 -182q39 -58 135 -58
q95 0 136.5 56t41.5 184v539h348zM932 1411l-246 -278h-123l146 278h223z" />
    <glyph glyph-name="uchoahuyen" unicode="&#x1eea;" horiz-adv-x="1597" 
d="M145 1464h400v-712q0 -163 8 -226q10 -75 27 -114q21 -57 79 -84q58 -31 140 -31q81 0 139 31q53 26 80 84q16 40 26 114q9 60 9 226v100v612h397v-366q54 14 77 77.5t23 206.5q0 24 -0.5 40.5t-1.5 35.5h148q-3 -259 -71.5 -367t-174.5 -108v-293q0 -238 -29 -354
q-27 -115 -98 -197q-78 -91 -207 -133q-128 -45 -317 -45q-193 0 -318 45q-127 42 -207 133q-69 80 -98 197q-31 118 -31 354v152v622zM502 1845h223l145 -278h-122z" />
    <glyph glyph-name="ucthhuyen" unicode="&#x1eeb;" horiz-adv-x="1292" 
d="M1167 1010v-260q42 7 65 61t23 193h148q0 -179 -66.5 -264t-169.5 -85v-161q0 -173 -26 -252q-28 -82 -94 -148q-63 -66 -166 -100q-98 -33 -236 -33q-137 0 -233 33q-99 32 -170 100q-65 62 -92 146q-27 78 -27 254v516h340v-539q0 -127 43 -182q39 -58 135 -58
q95 0 136.5 56t41.5 184v539h348zM371 1421h223l145 -278h-123z" />
    <glyph glyph-name="uchoahoi" unicode="&#x1eec;" horiz-adv-x="1597" 
d="M145 1464h400v-712q0 -163 8 -226q10 -75 27 -114q21 -57 79 -84q58 -31 140 -31q81 0 139 31q53 26 80 84q16 40 26 114q9 60 9 226v100v612h397v-366q54 14 77 77.5t23 206.5q0 24 -0.5 40.5t-1.5 35.5h148q-3 -259 -71.5 -367t-174.5 -108v-293q0 -238 -29 -354
q-27 -115 -98 -197q-78 -91 -207 -133q-128 -45 -317 -45q-193 0 -318 45q-127 42 -207 133q-69 80 -98 197q-31 118 -31 354v152v622zM862 1565h-135v157h39q45 0 59 13q17 13 17 45q0 24 -13 37q-14 14 -36 14q-24 0 -35 -8q-13 -13 -13 -37h-127q0 72 52 115
q51 41 137 41q77 0 123 -46q45 -44 45 -118q0 -62 -29 -99q-31 -37 -84 -37v-77z" />
    <glyph glyph-name="ucthhoi" unicode="&#x1eed;" horiz-adv-x="1292" 
d="M1167 1010v-260q42 7 65 61t23 193h148q0 -179 -66.5 -264t-169.5 -85v-161q0 -173 -26 -252q-28 -82 -94 -148q-63 -66 -166 -100q-98 -33 -236 -33q-137 0 -233 33q-99 32 -170 100q-65 62 -92 146q-27 78 -27 254v516h340v-539q0 -127 43 -182q39 -58 135 -58
q95 0 136.5 56t41.5 184v539h348zM731 1120h-135v158h39q45 0 59 12q17 13 17 45q0 25 -13 37q-14 14 -36 14q-24 0 -35 -8q-13 -12 -13 -37h-127q0 72 52 115q48 41 137 41q78 0 123 -45.5t45 -118.5q0 -61 -29.5 -98t-83.5 -37v-78z" />
    <glyph glyph-name="uchoanga" unicode="&#x1eee;" horiz-adv-x="1597" 
d="M145 1464h400v-712q0 -163 8 -226q10 -75 27 -114q21 -57 79 -84q58 -31 140 -31q81 0 139 31q53 26 80 84q16 40 26 114q9 60 9 226v100v612h397v-366q54 14 77 77.5t23 206.5q0 24 -0.5 40.5t-1.5 35.5h148q-3 -259 -71.5 -367t-174.5 -108v-293q0 -238 -29 -354
q-27 -115 -98 -197q-78 -91 -207 -133q-128 -45 -317 -45q-193 0 -318 45q-127 42 -207 133q-69 80 -98 197q-31 118 -31 354v152v622zM1053 1798l-4 -4q-26 -105 -64 -147q-41 -50 -106 -50h-29h-25l-73 21q-34 10 -50 10q-23 0 -38 -12q-14 -12 -27 -49h-94q21 99 61 147
q40 49 105 49h26q17 0 41 -6l74 -20h20h25q27 0 41 14q16 16 22 47h95z" />
    <glyph glyph-name="ucthnga" unicode="&#x1eef;" horiz-adv-x="1292" 
d="M1167 1010v-260q42 7 65 61t23 193h148q0 -179 -66.5 -264t-169.5 -85v-161q0 -173 -26 -252q-28 -82 -94 -148q-63 -66 -166 -100q-98 -33 -236 -33q-137 0 -233 33q-99 32 -170 100q-65 62 -92 146q-27 78 -27 254v516h340v-539q0 -127 43 -182q39 -58 135 -58
q95 0 136.5 56t41.5 184v539h348zM932 1333l-4 -4q-27 -106 -64 -147q-39 -49 -106 -49h-29h-24l-74 20q-34 10 -49 10q-24 0 -39 -12q-14 -12 -27 -49h-94q21 101 61 147q40 49 105 49h26q17 0 41 -6l74 -20h21h24q27 0 41 14q17 17 23 47h94z" />
    <glyph glyph-name="uchoanang" unicode="&#x1ef0;" horiz-adv-x="1597" 
d="M145 1464h400v-712q0 -163 8 -226q10 -75 27 -114q21 -57 79 -84q58 -31 140 -31q81 0 139 31q53 26 80 84q16 40 26 114q9 60 9 226v100v612h397v-366q54 14 77 77.5t23 206.5q0 24 -0.5 40.5t-1.5 35.5h148q-3 -259 -71.5 -367t-174.5 -108v-293q0 -238 -29 -354
q-27 -115 -98 -197q-78 -91 -207 -133q-128 -45 -317 -45q-193 0 -318 45q-127 42 -207 133q-69 80 -98 197q-31 118 -31 354v152v622zM643 -293h2q0 57 39 92q39 39 94 39q58 0 96 -37q37 -36 37 -94q0 -57 -39 -96q-38 -39 -94 -39q-55 0 -96 41q-39 39 -39 94z" />
    <glyph glyph-name="ucthnang" unicode="&#x1ef1;" horiz-adv-x="1292" 
d="M1167 1010v-260q42 7 65 61t23 193h148q0 -179 -66.5 -264t-169.5 -85v-161q0 -173 -26 -252q-28 -82 -94 -148q-63 -66 -166 -100q-98 -33 -236 -33q-137 0 -233 33q-99 32 -170 100q-65 62 -92 146q-27 78 -27 254v516h340v-539q0 -127 43 -182q39 -58 135 -58
q95 0 136.5 56t41.5 184v539h348zM512 -293h2q0 57 39 92q39 39 94 39q58 0 96 -37q37 -36 37 -94q0 -57 -39 -96q-38 -39 -94 -39q-55 0 -96 41q-39 39 -39 94z" />
    <glyph glyph-name="yhoahuyen" unicode="&#x1ef2;" horiz-adv-x="1223" 
d="M416 0v668l-512 796h458l197 -377q3 -3 6 -12q31 -57 43 -112q9 48 43 108l8 16l195 377h459l-512 -796v-668h-385zM375 1855h223l145 -278h-122z" />
    <glyph glyph-name="ythhuyen" unicode="&#x1ef3;" horiz-adv-x="1090" 
d="M76 -446l284 600l-407 856h395l141 -365q21 -50 29 -86q11 -37 19 -74q6 36 18 76q8 35 29 84l143 365h381l-635 -1456h-397zM272 1411h224l145 -278h-123z" />
    <glyph glyph-name="yhoanang" unicode="&#x1ef4;" horiz-adv-x="1223" 
d="M416 0v668l-512 796h458l197 -377q3 -3 6 -12q31 -57 43 -112q9 48 43 108l8 16l195 377h459l-512 -796v-668h-385zM465 -274h2q0 56 39 92q39 39 94 39q56 0 96 -37q37 -37 37 -94q0 -58 -39 -97t-94 -39t-96 41q-39 39 -39 95z" />
    <glyph glyph-name="ythnang" unicode="&#x1ef5;" horiz-adv-x="1090" 
d="M76 -446l284 600l-407 856h395l141 -365q21 -50 29 -86q11 -37 19 -74q6 36 18 76q8 35 29 84l143 365h381l-635 -1456h-397zM680 -311h2q0 56 39 92q40 39 94 39q56 0 96 -37q37 -37 37 -94q0 -58 -39 -97q-38 -38 -94 -38t-96 40q-39 39 -39 95z" />
    <glyph glyph-name="yhoahoi" unicode="&#x1ef6;" horiz-adv-x="1223" 
d="M416 0v668l-512 796h458l197 -377q3 -3 6 -12q31 -57 43 -112q9 48 43 108l8 16l195 377h459l-512 -796v-668h-385zM694 1585h-135v158h39q45 0 59 12q17 13 17 45q0 25 -12 37q-15 14 -37 14q-24 0 -35 -8q-12 -12 -12 -37h-127q0 73 51 115q49 41 137 41q78 0 123 -45
t45 -119q0 -62 -29.5 -98.5t-83.5 -36.5v-78z" />
    <glyph glyph-name="ythhoi" unicode="&#x1ef7;" horiz-adv-x="1090" 
d="M76 -446l284 600l-407 856h395l141 -365q21 -50 29 -86q11 -37 19 -74q6 36 18 76q8 35 29 84l143 365h381l-635 -1456h-397zM612 1141h-135v157h39q45 0 59 13q17 13 17 45q0 24 -12 37q-15 14 -37 14q-24 0 -35 -8q-12 -12 -12 -37h-127q0 73 51 114.5t137 41.5
q76 0 123 -45q45 -45 45 -119q0 -62 -29 -99q-30 -36 -84 -36v-78z" />
    <glyph glyph-name="yhoanga" unicode="&#x1ef8;" horiz-adv-x="1223" 
d="M416 0v668l-512 796h458l197 -377q3 -3 6 -12q31 -57 43 -112q9 48 43 108l8 16l195 377h459l-512 -796v-668h-385zM885 1798l-4 -4q-26 -105 -64 -147q-39 -50 -106 -50h-29h-25l-73 21q-34 10 -49 10q-24 0 -39 -12q-14 -12 -27 -49h-94q21 99 61 147q40 49 105 49h26
q17 0 41 -6l74 -20h20h25q27 0 41 14q15 15 23 47h94z" />
    <glyph glyph-name="ythnga" unicode="&#x1ef9;" horiz-adv-x="1090" 
d="M76 -446l284 600l-407 856h395l141 -365q21 -50 29 -86q11 -37 19 -74q6 36 18 76q8 35 29 84l143 365h381l-635 -1456h-397zM834 1343l-5 -4q-25 -103 -63 -147q-40 -49 -107 -49h-28h-25l-74 20q-36 11 -49 11q-21 0 -39 -13q-14 -14 -26 -49h-94q21 102 61 148
q41 49 104 49h27q17 0 41 -6l74 -21h20h25q27 0 41 14q16 18 22 47h95z" />
    <glyph glyph-name="emdash" unicode="&#x2013;" horiz-adv-x="2048" 
d="M0 367v272h2048v-272h-2048z" />
    <glyph glyph-name="endash" unicode="&#x2014;" horiz-adv-x="1024" 
d="M0 367v272h1024v-272h-1024z" />
    <glyph glyph-name="quoteleft" unicode="&#x2018;" horiz-adv-x="639" 
d="M401 838h-374l309 626h276z" />
    <glyph glyph-name="quoteright" unicode="&#x2019;" horiz-adv-x="639" 
d="M240 1464h372l-309 -626h-276z" />
    <glyph glyph-name="quotesinglbase" unicode="&#x201a;" horiz-adv-x="639" 
d="M240 332h372l-309 -627h-276z" />
    <glyph glyph-name="quotedblleft" unicode="&#x201c;" horiz-adv-x="1157" 
d="M918 838h-373l309 626h276zM401 838h-374l309 626h276z" />
    <glyph glyph-name="quotedblright" unicode="&#x201d;" horiz-adv-x="1157" 
d="M240 1464h372l-309 -626h-276zM756 1464h374l-309 -626h-276z" />
    <glyph glyph-name="quotedblbase" unicode="&#x201e;" horiz-adv-x="1157" 
d="M240 332h372l-309 -627h-276zM756 332h374l-309 -627h-276z" />
    <glyph glyph-name="dagger" unicode="&#x2020;" horiz-adv-x="1219" 
d="M446 -414v1059h-376v316h376v503h326v-503h377v-316h-377v-1059h-326z" />
    <glyph glyph-name="daggerdbl" unicode="&#x2021;" horiz-adv-x="1219" 
d="M442 752h-379v286h379v426h332v-426h381v-286h-381v-449h381v-289h-381v-426h-332v426h-379v289h379v449z" />
    <glyph glyph-name="bullet" unicode="&#x2022;" horiz-adv-x="1208" 
d="M307 762q0 121 86 209q91 86 211 86t209 -86q86 -88 86 -209t-88 -209q-85 -88 -209 -88q-122 0 -209 88q-86 86 -86 209z" />
    <glyph glyph-name="ellipsis" unicode="&#x2026;" horiz-adv-x="2048" 
d="M141 164q0 85 58 143t143 58q88 0 145 -58q58 -58 58 -143q0 -86 -58.5 -144.5t-144.5 -58.5q-82 0 -143 59q-58 58 -58 144zM823 164q0 85 58 143t143 58q87 0 145 -58t58 -143q0 -86 -58 -144q-61 -59 -145 -59q-82 0 -143 59q-58 58 -58 144zM1507 164q0 85 58 143
t143 58q88 0 145 -58q58 -58 58 -143q0 -86 -58.5 -144.5t-144.5 -58.5q-82 0 -143 59q-58 58 -58 144z" />
    <glyph glyph-name="perthousand" unicode="&#x2030;" horiz-adv-x="2701" 
d="M426 825q68 0 96 60q31 58 31 190q0 135 -31 193q-26 57 -96 57t-96 -57q-31 -58 -31 -193q0 -132 31 -190q28 -60 96 -60zM803 1075q0 -184 -103 -293q-101 -110 -274 -110q-172 0 -274 108q-103 112 -103 295t103 295q101 109 274 109t274 -109q103 -112 103 -295z
M2292 115q68 0 98 59q29 63 29 193q0 127 -29 190q-30 59 -98 59t-97 -59q-30 -58 -30 -190q0 -134 29.5 -193t97.5 -59zM2669 367q0 -184 -103 -295q-100 -111 -274 -111q-171 0 -273 111q-102 108 -102 295q0 188 100 295q103 108 275 108t274 -108q103 -109 103 -295z
M1444 115q69 0 96 59q31 58 31 193q0 132 -31 190q-27 59 -96 59t-96 -59q-31 -58 -31 -190q0 -135 31 -193q27 -59 96 -59zM1819 367q0 -187 -103 -295q-100 -111 -272 -111q-173 0 -275 111q-102 108 -102 295q0 185 102 295q103 108 275 108t274 -108q101 -107 101 -295z
M393 -39l879 1518h188l-885 -1518h-182z" />
    <glyph glyph-name="guilsinglleft" unicode="&#x2039;" horiz-adv-x="639" 
d="M403 14l-358 488l358 489l193 -139l-264 -350l264 -355z" />
    <glyph glyph-name="guilsinglright" unicode="&#x203a;" horiz-adv-x="639" 
d="M236 14l-191 133l262 355l-262 350l191 139l360 -489z" />
    <glyph glyph-name="trademark" unicode="&#x2122;" horiz-adv-x="1479" 
d="M543 547h397l-149 483q-5 13 -19 72q-17 69 -31 125q-14 -51 -24 -103q-16 -50 -27 -94zM-16 0l505 1464h500l506 -1464h-397l-74 262h-567l-76 -262h-397zM479 1782h109q3 -57 39 -80q37 -25 104 -25q66 0 105 25q36 24 36 80h105q-9 -127 -70 -185q-61 -57 -178 -57
q-120 0 -180 59q-64 64 -70 183z" />
    <glyph glyph-name="absachoa" unicode="&#xf006;" 
d="M-133 2038l-246 -279h-123l146 279h223z" />
    <glyph glyph-name="sac" unicode="&#xf008;" 
d="M-420 1413l-246 -278h-122l145 278h223z" />
    <glyph glyph-name="aasacth" unicode="&#xf009;" 
d="M-297 1710l-246 -278h-123l146 278h223z" />
    <glyph glyph-name="asacth" unicode="&#xf00a;" 
d="M-420 1413l-246 -278h-122l145 278h223z" />
    <glyph glyph-name="abhuyenhoa" unicode="&#xf00b;" 
d="M-737 2089h223l145 -279h-123z" />
    <glyph glyph-name="huyen" unicode="&#xf00d;" 
d="M-840 1423h224l145 -278h-123z" />
    <glyph glyph-name="aahuyenth" unicode="&#xf00e;" 
d="M-881 1700h224l145 -279h-123z" />
    <glyph glyph-name="ahuyenth" unicode="&#xf00f;" 
d="M-840 1423h224l145 -278h-123z" />
    <glyph glyph-name="abhoihoa" unicode="&#xf010;" 
d="M-379 1741h-135v157h39q43 0 59 13q17 13 17 45q0 24 -13 37q-14 14 -37 14t-34 -8q-13 -12 -13 -37h-127q0 72 52 115q50 41 137 41q76 0 123 -45q45 -46 45 -119q0 -62 -29 -99q-30 -36 -84 -36v-78z" />
    <glyph glyph-name="ahoihoa" unicode="&#xf011;" 
d="M-799 1577h-135v158h39q45 0 59 12q17 13 17 45q0 25 -12 37q-15 14 -37 14q-24 0 -35 -8q-12 -12 -12 -37h-127q0 73 51 115q49 41 137 41q76 0 123 -45q45 -45 45 -119q0 -62 -29.5 -98.5t-83.5 -36.5v-78z" />
    <glyph glyph-name="hoi" unicode="&#xf012;" 
d="M-594 1137h-135v157h39q45 0 59 13q17 13 17 45q0 24 -13 37q-14 14 -37 14t-34 -8q-13 -13 -13 -37h-127q0 72 52 115q49 40 137 40q78 0 123 -45t45 -118q0 -62 -29 -99q-31 -37 -84 -37v-77z" />
    <glyph glyph-name="aahoith" unicode="&#xf013;" 
d="M-522 1434h-135v157h39q45 0 59 13q16 13 16 45q0 24 -12 37q-14 14 -37 14t-35 -8q-12 -13 -12 -37h-127q0 73 51 114q49 41 137 41q79 0 123 -45q45 -44 45 -118q0 -61 -28 -99q-32 -37 -84 -37v-77z" />
    <glyph glyph-name="ahoith" unicode="&#xf014;" 
d="M-594 1137h-135v157h39q45 0 59 13q17 13 17 45q0 24 -13 37q-14 14 -37 14t-34 -8q-13 -13 -13 -37h-127q0 72 52 115q49 40 137 40q78 0 123 -45t45 -118q0 -62 -29 -99q-31 -37 -84 -37v-77z" />
    <glyph glyph-name="abngahoa" unicode="&#xf015;" 
d="M-481 2109l-4 -4q-26 -104 -64 -147q-39 -49 -106 -49h-29h-25l-73 20q-34 10 -49 10q-24 0 -39 -12.5t-27 -48.5h-94q21 100 61 147q41 50 105 50h26q19 0 41 -7l74 -20h20h25q27 0 41 14q16 17 23 47h94z" />
    <glyph glyph-name="abngahoa" unicode="&#xf02f;" 
d="M-481 2109l-4 -4q-26 -104 -64 -147q-39 -49 -106 -49h-29h-25l-73 20q-34 10 -49 10q-24 0 -39 -12.5t-27 -48.5h-94q21 100 61 147q41 50 105 50h26q19 0 41 -7l74 -20h20h25q27 0 41 14q16 17 23 47h94z" />
    <glyph glyph-name="abngahoa" unicode="&#xf02d;" 
d="M-481 2109l-4 -4q-26 -104 -64 -147q-39 -49 -106 -49h-29h-25l-73 20q-34 10 -49 10q-24 0 -39 -12.5t-27 -48.5h-94q21 100 61 147q41 50 105 50h26q19 0 41 -7l74 -20h20h25q27 0 41 14q16 17 23 47h94z" />
    <glyph glyph-name="aangath" unicode="&#xf018;" 
d="M-328 1690l-4 -4q-24 -101 -63 -148q-40 -49 -107 -49h-28h-25l-74 20q-32 11 -49 11q-25 0 -39 -13.5t-26 -48.5h-95q23 103 62 148q40 49 104 49h27q15 0 41 -6l74 -21h20h25q26 0 41 14q16 18 22 48h94z" />
    <glyph glyph-name="angath" unicode="&#xf019;" 
d="M-338 1362l-4 -4q-24 -102 -64 -148q-40 -49 -106 -49h-29h-24l-74 21q-34 10 -49 10q-24 0 -39 -12q-13 -14 -27 -50h-94q21 101 62 148q39 49 104 49h27q15 0 41 -6l73 -21h21h24q26 0 41 15q17 15 23 47h94z" />
    <glyph glyph-name="angath" unicode="&#xf01b;" 
d="M-338 1362l-4 -4q-24 -102 -64 -148q-40 -49 -106 -49h-29h-24l-74 21q-34 10 -49 10q-24 0 -39 -12q-13 -14 -27 -50h-94q21 101 62 148q39 49 104 49h27q15 0 41 -6l73 -21h21h24q26 0 41 15q17 15 23 47h94z" />
    <glyph glyph-name="angath" unicode="&#xf01a;" 
d="M-338 1362l-4 -4q-24 -102 -64 -148q-40 -49 -106 -49h-29h-24l-74 21q-34 10 -49 10q-24 0 -39 -12q-13 -14 -27 -50h-94q21 101 62 148q39 49 104 49h27q15 0 41 -6l73 -21h21h24q26 0 41 15q17 15 23 47h94z" />
    <glyph glyph-name="nga" unicode="&#xf01d;" 
d="M-338 1362l-4 -4q-24 -102 -64 -148q-40 -49 -106 -49h-29h-24l-74 21q-34 10 -49 10q-24 0 -39 -12q-13 -14 -27 -50h-94q21 101 62 148q39 49 104 49h27q15 0 41 -6l73 -21h21h24q26 0 41 15q17 15 23 47h94z" />
    <glyph glyph-name="anangth" unicode="&#xf023;" 
d="M-778 -276h2q0 56 39 92q39 39 94 39q56 0 96 -37q37 -37 37 -94q0 -58 -39 -97t-94 -39t-96 41q-39 39 -39 95z" />
    <glyph glyph-name="anangth" unicode="&#xf02c;" 
d="M-778 -276h2q0 56 39 92q39 39 94 39q56 0 96 -37q37 -37 37 -94q0 -58 -39 -97t-94 -39t-96 41q-39 39 -39 95z" />
    <glyph glyph-name="anangth" unicode="&#xf028;" 
d="M-778 -276h2q0 56 39 92q39 39 94 39q56 0 96 -37q37 -37 37 -94q0 -58 -39 -97t-94 -39t-96 41q-39 39 -39 95z" />
    <glyph glyph-name="anangth" unicode="&#xf027;" 
d="M-778 -276h2q0 56 39 92q39 39 94 39q56 0 96 -37q37 -37 37 -94q0 -58 -39 -97t-94 -39t-96 41q-39 39 -39 95z" />
    <glyph glyph-name="anangth" unicode="&#xf026;" 
d="M-778 -276h2q0 56 39 92q39 39 94 39q56 0 96 -37q37 -37 37 -94q0 -58 -39 -97t-94 -39t-96 41q-39 39 -39 95z" />
    <glyph glyph-name="anangth" unicode="&#xf025;" 
d="M-778 -276h2q0 56 39 92q39 39 94 39q56 0 96 -37q37 -37 37 -94q0 -58 -39 -97t-94 -39t-96 41q-39 39 -39 95z" />
    <glyph glyph-name="anangth" unicode="&#xf024;" 
d="M-778 -276h2q0 56 39 92q39 39 94 39q56 0 96 -37q37 -37 37 -94q0 -58 -39 -97t-94 -39t-96 41q-39 39 -39 95z" />
    <glyph glyph-name="nang" unicode="&#xf02a;" 
d="M-799 -276h2q0 54 39 92q40 39 94 39q55 0 97 -37q37 -39 37 -94q0 -56 -39 -97q-40 -39 -95 -39q-53 0 -96 41q-39 40 -39 95z" />
    <glyph glyph-name="lslash" 
 />
    <glyph glyph-name="dotaccent" horiz-adv-x="1335" 
d="M496 0v502h-486v203h449l-99 149h-350v203h217l-256 395h387l250 -414q17 -24 31 -61q5 -13 17 -45t14 -39q15 50 26 78q15 32 33 65l252 416h385l-258 -395h219v-203h-354l-94 -149h448v-203h-485v-502h-346z" />
    <glyph glyph-name="hungarumlaut" horiz-adv-x="1024" 
d="M569 1147l148 350h248l-277 -350h-119zM393 1497h238l-240 -350h-110z" />
    <glyph glyph-name="fi" horiz-adv-x="1346" 
d="M827 1325q0 80 60 137q58 58 139 58q83 0 139 -56q58 -55 58 -139q0 -83 -58 -141q-29 -29 -64 -43.5t-75 -14.5q-79 0 -139 60t-60 139zM846 0v1010h358v-1010h-358zM166 0v758h-152v252h152v207q0 175 96 266q95 88 287 88q13 0 65 -4q56 -9 80 -15v-272q-18 7 -45 14
q-28 4 -37 4q-52 0 -73 -30q-23 -32 -23 -97v-161h178v-252h-178v-758h-350z" />
    <glyph glyph-name="aa" horiz-adv-x="2" 
d="M-707 1362h109q3 -57 39 -80q37 -25 104 -25q66 0 105 25q37 25 37 80h104q-9 -126 -70 -184q-59 -58 -178 -58q-120 0 -180 60q-63 63 -70 182z" />
    <glyph glyph-name="ab" horiz-adv-x="2" 
d="M-788 1116l159 279h248l164 -279h-137l-148 144l-149 -144h-137z" />
    <glyph glyph-name="abth" horiz-adv-x="1352" 
d="M901 506q0 120 -63 186q-64 70 -172 70t-170 -68q-64 -70 -64 -188q0 -119 64 -187q61 -67 170 -67q108 0 171.5 67t63.5 187zM1214 1010v-1010h-327v164q-71 -105 -158.5 -154t-204.5 -49q-203 0 -323 148q-59 73 -90 172t-31 223q0 248 127 393t340 145q114 0 196 -49
q83 -47 142 -149v166h329zM426 1116l160 279h248l163 -279h-137l-147 144l-150 -144h-137z" />
    <glyph glyph-name="abhoa" horiz-adv-x="1479" 
d="M543 547h397l-149 483q-5 13 -19 72q-17 69 -31 125q-14 -51 -24 -103q-16 -50 -27 -94zM-16 0l505 1464h500l506 -1464h-397l-74 262h-567l-76 -262h-397zM449 1526l159 278h248l164 -278h-137l-148 143l-149 -143h-137z" />
    <glyph glyph-name="ebth" horiz-adv-x="1251" 
d="M827 635q-9 84 -65 137t-137 53q-85 0 -138 -47q-55 -53 -69 -143h409zM1178 434h-768q3 -118 59 -180q58 -64 168 -64q80 0 137 31q58 33 84 90l268 -108q-47 -115 -170 -178q-122 -64 -299 -64q-264 0 -424 148q-159 144 -159 385q0 235 159 393q159 155 404 155
q250 0 395 -157q74 -81 110 -188.5t36 -245.5v-17zM338 1100l160 278h247l164 -278h-137l-147 143l-150 -143h-137z" />
    <glyph glyph-name="ebhoa" horiz-adv-x="1161" 
d="M156 0v1464h897v-321h-508v-254h479v-314h-479v-247h508v-328h-897zM309 1526l160 278h248l164 -278h-138l-147 143l-150 -143h-137z" />
    <glyph glyph-name="obth" horiz-adv-x="1276" 
d="M848 502q0 113 -57 178q-59 65 -154 65q-98 0 -154 -65q-57 -63 -57 -178q0 -112 55 -176q60 -66 156 -66t156 66q55 66 55 176zM1202 502q0 -111 -43 -207q-45 -102 -123 -176q-88 -82 -182 -119q-98 -39 -217 -39q-120 0 -217 39q-99 39 -182.5 118.5t-120.5 176.5
q-43 93 -43 207q0 111 43 209q40 99 121 176q79 76 182 117q98 38 217 38q118 0 217 -38q103 -41 182 -117q83 -75 123 -176q43 -98 43 -209zM352 1106l160 278h248l164 -278h-138l-147 143l-150 -143h-137z" />
    <glyph glyph-name="obhoa" horiz-adv-x="1753" 
d="M1659 729q0 -159 -57 -297q-57 -135 -170 -246q-112 -108 -256 -166q-151 -59 -299 -59q-150 0 -299 59q-147 59 -254 166q-108 103 -170 248q-60 142 -60 295t60 295q62 145 170 248q110 110 254 168q140 57 299 57t301 -57.5t253.5 -167.5t170.5 -248q57 -138 57 -295z
M877 299q165 0 276 123q55 61 81 137t26 170q0 183 -109 307q-111 123 -274 123q-167 0 -275 -123t-108 -307q0 -191 106 -309q109 -121 277 -121zM600 1559l160 278h248l163 -278h-137l-147 143l-150 -143h-137z" />
    <glyph glyph-name="athsac" horiz-adv-x="1352" 
d="M901 506q0 120 -63 186q-64 70 -172 70t-170 -68q-64 -70 -64 -188q0 -119 64 -187q61 -67 170 -67q108 0 171.5 67t63.5 187zM1214 1010v-1010h-327v164q-71 -105 -158.5 -154t-204.5 -49q-203 0 -323 148q-59 73 -90 172t-31 223q0 248 127 393t340 145q114 0 196 -49
q83 -47 142 -149v166h329zM1036 1434l-245 -279h-123l145 279h223z" />
    <glyph glyph-name="athhuyen" horiz-adv-x="1352" 
d="M901 506q0 120 -63 186q-64 70 -172 70t-170 -68q-64 -70 -64 -188q0 -119 64 -187q61 -67 170 -67q108 0 171.5 67t63.5 187zM1214 1010v-1010h-327v164q-71 -105 -158.5 -154t-204.5 -49q-203 0 -323 148q-59 73 -90 172t-31 223q0 248 127 393t340 145q114 0 196 -49
q83 -47 142 -149v166h329zM537 1434h223l145 -279h-123z" />
    <glyph glyph-name="athnga" horiz-adv-x="1352" 
d="M901 506q0 120 -63 186q-64 70 -172 70t-170 -68q-64 -70 -64 -188q0 -119 64 -187q61 -67 170 -67q108 0 171.5 67t63.5 187zM1214 1010v-1010h-327v164q-71 -105 -158.5 -154t-204.5 -49q-203 0 -323 148q-59 73 -90 172t-31 223q0 248 127 393t340 145q114 0 196 -49
q83 -47 142 -149v166h329zM1067 1376l-4 -4q-25 -103 -64 -147q-39 -49 -106 -49h-29h-24l-74 20q-34 10 -49 10q-24 0 -39 -12q-14 -14 -27 -49h-94q21 101 61 147q40 49 105 49h27q15 0 41 -6l73 -20h21h24q27 0 41 14q17 15 23 47h94z" />
    <glyph glyph-name="ahoasac" horiz-adv-x="1479" 
d="M543 547h397l-149 483q-5 13 -19 72q-17 69 -31 125q-14 -51 -24 -103q-16 -50 -27 -94zM-16 0l505 1464h500l506 -1464h-397l-74 262h-567l-76 -262h-397zM977 1845l-246 -278h-123l146 278h223z" />
    <glyph glyph-name="ahoahuyen" horiz-adv-x="1479" 
d="M543 547h397l-149 483q-5 13 -19 72q-17 69 -31 125q-14 -51 -24 -103q-16 -50 -27 -94zM-16 0l505 1464h500l506 -1464h-397l-74 262h-567l-76 -262h-397zM508 1855h223l146 -278h-123z" />
    <glyph glyph-name="ahoanga" horiz-adv-x="1479" 
d="M543 547h397l-149 483q-5 13 -19 72q-17 69 -31 125q-14 -51 -24 -103q-16 -50 -27 -94zM-16 0l505 1464h500l506 -1464h-397l-74 262h-567l-76 -262h-397zM987 1798l-4 -4q-24 -102 -63 -147q-41 -50 -107 -50h-29h-24l-74 21q-34 10 -49 10q-24 0 -39 -12
q-12 -12 -27 -49h-94q23 102 62 147q39 49 104 49h27q15 0 41 -6l73 -20h21h24q27 0 41 14q17 15 23 47h94z" />
    <glyph glyph-name="ethsac" horiz-adv-x="1251" 
d="M827 635q-9 84 -65 137t-137 53q-85 0 -138 -47q-55 -53 -69 -143h409zM1178 434h-768q3 -118 59 -180q58 -64 168 -64q80 0 137 31q58 33 84 90l268 -108q-47 -115 -170 -178q-122 -64 -299 -64q-264 0 -424 148q-159 144 -159 385q0 235 159 393q159 155 404 155
q250 0 395 -157q74 -81 110 -188.5t36 -245.5v-17zM932 1423l-246 -278h-123l146 278h223z" />
    <glyph glyph-name="ethhuyen" horiz-adv-x="1251" 
d="M827 635q-9 84 -65 137t-137 53q-85 0 -138 -47q-55 -53 -69 -143h409zM1178 434h-768q3 -118 59 -180q58 -64 168 -64q80 0 137 31q58 33 84 90l268 -108q-47 -115 -170 -178q-122 -64 -299 -64q-264 0 -424 148q-159 144 -159 385q0 235 159 393q159 155 404 155
q250 0 395 -157q74 -81 110 -188.5t36 -245.5v-17zM360 1423h224l145 -278h-123z" />
    <glyph glyph-name="ehoasac" horiz-adv-x="1161" 
d="M156 0v1464h897v-321h-508v-254h479v-314h-479v-247h508v-328h-897zM870 1845l-245 -278h-123l145 278h223z" />
    <glyph glyph-name="ehoahuyen" horiz-adv-x="1161" 
d="M156 0v1464h897v-321h-508v-254h479v-314h-479v-247h508v-328h-897zM371 1845h223l145 -278h-123z" />
    <glyph glyph-name="othsac" horiz-adv-x="1276" 
d="M848 502q0 113 -57 178q-59 65 -154 65q-98 0 -154 -65q-57 -63 -57 -178q0 -112 55 -176q60 -66 156 -66t156 66q55 66 55 176zM1202 502q0 -111 -43 -207q-45 -102 -123 -176q-88 -82 -182 -119q-98 -39 -217 -39q-120 0 -217 39q-99 39 -182.5 118.5t-120.5 176.5
q-43 93 -43 207q0 111 43 209q40 99 121 176q79 76 182 117q98 38 217 38q118 0 217 -38q103 -41 182 -117q83 -75 123 -176q43 -98 43 -209zM883 1444l-246 -279h-123l145 279h224z" />
    <glyph glyph-name="othhuyen" horiz-adv-x="1276" 
d="M848 502q0 113 -57 178q-59 65 -154 65q-98 0 -154 -65q-57 -63 -57 -178q0 -112 55 -176q60 -66 156 -66t156 66q55 66 55 176zM1202 502q0 -111 -43 -207q-45 -102 -123 -176q-88 -82 -182 -119q-98 -39 -217 -39q-120 0 -217 39q-99 39 -182.5 118.5t-120.5 176.5
q-43 93 -43 207q0 111 43 209q40 99 121 176q79 76 182 117q98 38 217 38q118 0 217 -38q103 -41 182 -117q83 -75 123 -176q43 -98 43 -209zM434 1423h223l146 -278h-123z" />
    <glyph glyph-name="othnga" horiz-adv-x="1276" 
d="M848 502q0 113 -57 178q-59 65 -154 65q-98 0 -154 -65q-57 -63 -57 -178q0 -112 55 -176q60 -66 156 -66t156 66q55 66 55 176zM1202 502q0 -111 -43 -207q-45 -102 -123 -176q-88 -82 -182 -119q-98 -39 -217 -39q-120 0 -217 39q-99 39 -182.5 118.5t-120.5 176.5
q-43 93 -43 207q0 111 43 209q40 99 121 176q79 76 182 117q98 38 217 38q118 0 217 -38q103 -41 182 -117q83 -75 123 -176q43 -98 43 -209zM893 1376l-4 -4q-27 -106 -64 -147q-39 -49 -106 -49h-29h-24l-74 20q-34 10 -49 10q-24 0 -39 -12q-14 -14 -27 -49h-94
q21 101 61 147q40 49 105 49h26q17 0 41 -6l74 -20h21h24q27 0 41 14q17 17 23 47h94z" />
    <glyph glyph-name="ohoasac" horiz-adv-x="1753" 
d="M1659 729q0 -159 -57 -297q-57 -135 -170 -246q-112 -108 -256 -166q-151 -59 -299 -59q-150 0 -299 59q-147 59 -254 166q-108 103 -170 248q-60 142 -60 295t60 295q62 145 170 248q110 110 254 168q140 57 299 57t301 -57.5t253.5 -167.5t170.5 -248q57 -138 57 -295z
M877 299q165 0 276 123q55 61 81 137t26 170q0 183 -109 307q-111 123 -274 123q-167 0 -275 -123t-108 -307q0 -191 106 -309q109 -121 277 -121zM1184 1878l-246 -279h-123l146 279h223z" />
    <glyph glyph-name="ohoahuyen" horiz-adv-x="1753" 
d="M1659 729q0 -159 -57 -297q-57 -135 -170 -246q-112 -108 -256 -166q-151 -59 -299 -59q-150 0 -299 59q-147 59 -254 166q-108 103 -170 248q-60 142 -60 295t60 295q62 145 170 248q110 110 254 168q140 57 299 57t301 -57.5t253.5 -167.5t170.5 -248q57 -138 57 -295z
M877 299q165 0 276 123q55 61 81 137t26 170q0 183 -109 307q-111 123 -274 123q-167 0 -275 -123t-108 -307q0 -191 106 -309q109 -121 277 -121zM643 1878h223l146 -279h-123z" />
    <glyph glyph-name="ohoanga" horiz-adv-x="1753" 
d="M1659 729q0 -159 -57 -297q-57 -135 -170 -246q-112 -108 -256 -166q-151 -59 -299 -59q-150 0 -299 59q-147 59 -254 166q-108 103 -170 248q-60 142 -60 295t60 295q62 145 170 248q110 110 254 168q140 57 299 57t301 -57.5t253.5 -167.5t170.5 -248q57 -138 57 -295z
M877 299q165 0 276 123q55 61 81 137t26 170q0 183 -109 307q-111 123 -274 123q-167 0 -275 -123t-108 -307q0 -191 106 -309q109 -121 277 -121zM1133 1831l-5 -4q-24 -104 -63 -148q-41 -49 -107 -49h-28h-25l-74 21q-32 10 -49 10q-22 0 -39 -12q-14 -15 -26 -50h-94
q21 102 61 148q40 49 104 49h27q17 0 41 -6l74 -21h20h25q26 0 41 15q16 16 22 47h95z" />
    <glyph glyph-name="ithsac" horiz-adv-x="639" 
d="M123 0v1010h356v-1010h-356zM512 1419l-246 -278h-123l146 278h223z" />
    <glyph glyph-name="ithhuyen" horiz-adv-x="639" 
d="M123 0v1010h356v-1010h-356zM104 1430h224l145 -279h-123z" />
    <glyph glyph-name="ihoasac" horiz-adv-x="735" 
d="M166 0v1464h403v-1464h-403zM592 1855l-246 -278h-123l146 278h223z" />
    <glyph glyph-name="ihoahuyen" horiz-adv-x="735" 
d="M166 0v1464h403v-1464h-403zM164 1876h223l145 -279h-122z" />
    <glyph glyph-name="uthsac" horiz-adv-x="1292" 
d="M1167 1010v-516q0 -173 -26 -252q-28 -82 -94 -148q-63 -66 -166 -100q-98 -33 -236 -33q-137 0 -233 33q-99 32 -170 100q-65 62 -92 146q-27 78 -27 254v516h340v-539q0 -127 43 -182q39 -58 135 -58q95 0 136.5 56t41.5 184v539h348zM952 1391l-245 -279h-123l145 279
h223z" />
    <glyph glyph-name="uthhuyen" horiz-adv-x="1292" 
d="M1167 1010v-516q0 -173 -26 -252q-28 -82 -94 -148q-63 -66 -166 -100q-98 -33 -236 -33q-137 0 -233 33q-99 32 -170 100q-65 62 -92 146q-27 78 -27 254v516h340v-539q0 -127 43 -182q39 -58 135 -58q95 0 136.5 56t41.5 184v539h348zM350 1391h223l146 -279h-123z" />
    <glyph glyph-name="uhoasac" horiz-adv-x="1597" 
d="M145 1464h400v-712q0 -163 8 -226q10 -75 27 -114q21 -57 79 -84q58 -31 140 -31q81 0 139 31q53 26 80 84q16 40 26 114q9 60 9 226v100v612h397v-774q0 -238 -29 -354q-27 -115 -98 -197q-78 -91 -207 -133q-128 -45 -317 -45q-193 0 -318 45q-127 42 -207 133
q-69 80 -98 197q-31 118 -31 354v152v622zM1104 1845l-246 -278h-123l146 278h223z" />
    <glyph glyph-name="uhoahuyen" horiz-adv-x="1597" 
d="M145 1464h400v-712q0 -163 8 -226q10 -75 27 -114q21 -57 79 -84q58 -31 140 -31q81 0 139 31q53 26 80 84q16 40 26 114q9 60 9 226v100v612h397v-774q0 -238 -29 -354q-27 -115 -98 -197q-78 -91 -207 -133q-128 -45 -317 -45q-193 0 -318 45q-127 42 -207 133
q-69 80 -98 197q-31 118 -31 354v152v622zM502 1845h223l145 -278h-122z" />
    <glyph glyph-name="ythsac" horiz-adv-x="1090" 
d="M76 -446l284 600l-407 856h395l141 -365q21 -50 29 -86q11 -37 19 -74q6 36 18 76q8 35 29 84l143 365h381l-635 -1456h-397zM844 1411l-246 -278h-123l146 278h223z" />
    <glyph glyph-name="yhoasac" horiz-adv-x="1223" 
d="M416 0v668l-512 796h458l197 -377q3 -3 6 -12q31 -57 43 -112q9 48 43 108l8 16l195 377h459l-512 -796v-668h-385zM905 1845l-246 -278h-122l145 278h223z" />
    <glyph glyph-name="aasachoa" 
d="M-430 2109l-246 -278h-123l146 278h223z" />
    <glyph glyph-name="aahuyenhoa" 
d="M-1044 2099h223l145 -278h-123z" />
    <glyph glyph-name="aahoihoa" 
d="M-686 1812h-135v158h39q45 0 59 12q16 15 16 46q0 24 -12 36q-14 15 -37 15t-35 -8q-12 -13 -12 -37h-127q0 72 51 114q49 41 138 41q78 0 123 -45t45 -119q0 -59 -29 -98q-32 -37 -84 -37v-78z" />
    <glyph glyph-name="aangahoa" 
d="M-461 2079l-4 -4q-24 -101 -63 -148q-40 -49 -107 -49h-29h-24l-74 20q-32 11 -49 11q-25 0 -39 -13q-13 -13 -27 -49h-94q23 103 62 148q39 49 104 49h27q15 0 41 -6l73 -21h21h25q26 0 40 15q17 15 23 47h94z" />
    <glyph glyph-name="cth" 
d="M-860 1362h108q3 -56 39 -80q39 -25 105 -25t103.5 24.5t37.5 80.5h105q-11 -128 -70 -184q-31 -29 -76 -43.5t-102 -14.5q-121 0 -181 60q-63 65 -69 182z" />
    <glyph glyph-name="csacth" 
d="M-860 1362h108q3 -56 39 -80q39 -25 105 -25t103.5 24.5t37.5 80.5h105q-11 -128 -70 -184q-31 -29 -76 -43.5t-102 -14.5q-121 0 -181 60q-63 65 -69 182zM-342 1712l-246 -278h-123l146 278h223z" />
    <glyph glyph-name="chuyenth" 
d="M-860 1362h108q3 -56 39 -80q39 -25 105 -25t103.5 24.5t37.5 80.5h105q-11 -128 -70 -184q-31 -29 -76 -43.5t-102 -14.5q-121 0 -181 60q-63 65 -69 182zM-893 1722h223l146 -278h-123z" />
    <glyph glyph-name="choith" 
d="M-860 1362h108q3 -56 39 -80q39 -25 105 -25t103.5 24.5t37.5 80.5h105q-11 -128 -70 -184q-31 -29 -76 -43.5t-102 -14.5q-121 0 -181 60q-63 65 -69 182zM-553 1432h-135v157h39q45 0 59 13q17 14 17 45q0 24 -13 36q-14 15 -37 15t-34 -8q-13 -13 -13 -37h-127
q0 72 52 114q48 41 137 41q78 0 123 -45t45 -118q0 -60 -29 -99q-31 -37 -84 -37v-77z" />
    <glyph glyph-name="cngath" 
d="M-860 1362h108q3 -56 39 -80q39 -25 105 -25t103.5 24.5t37.5 80.5h105q-11 -128 -70 -184q-31 -29 -76 -43.5t-102 -14.5q-121 0 -181 60q-63 65 -69 182zM-362 1696l-5 -4q-24 -104 -63 -148q-40 -49 -107 -49h-28h-25l-74 21q-32 10 -49 10q-23 0 -39 -13
q-14 -14 -26 -49h-94q21 102 61 148q40 49 104 49h27q17 0 41 -6l74 -21h20h25q27 0 41 15q16 16 22 47h95z" />
    <glyph glyph-name="cnangth" 
d="M-860 1362h108q3 -56 39 -80q39 -25 105 -25t103.5 24.5t37.5 80.5h105q-11 -128 -70 -184q-31 -29 -76 -43.5t-102 -14.5q-121 0 -181 60q-63 65 -69 182zM-813 -293h2q0 57 39 92q39 39 94 39q58 0 96 -37q37 -36 37 -94q0 -57 -39 -96q-38 -39 -94 -39q-57 0 -96 41
q-39 39 -39 94z" />
    <glyph glyph-name="choa" 
d="M-1004 1782h109q3 -57 39 -80q39 -25 104 -25q66 0 105 25q37 25 37 80h104q-9 -127 -69 -185q-61 -57 -179 -57q-120 0 -180 59q-63 63 -70 183z" />
    <glyph glyph-name="csachoa" 
d="M-1004 1782h109q3 -57 39 -80q39 -25 104 -25q66 0 105 25q37 25 37 80h104q-9 -127 -69 -185q-61 -57 -179 -57q-120 0 -180 59q-63 63 -70 183zM-485 2132l-246 -279h-123l145 279h224z" />
    <glyph glyph-name="chuyenhoa" 
d="M-1004 1782h109q3 -57 39 -80q39 -25 104 -25q66 0 105 25q37 25 37 80h104q-9 -127 -69 -185q-61 -57 -179 -57q-120 0 -180 59q-63 63 -70 183zM-1036 2142h223l145 -278h-123z" />
    <glyph glyph-name="choihoa" 
d="M-1004 1782h109q3 -57 39 -80q39 -25 104 -25q66 0 105 25q37 25 37 80h104q-9 -127 -69 -185q-61 -57 -179 -57q-120 0 -180 59q-63 63 -70 183zM-696 1851h-135v158h38q46 0 60 12q16 15 16 45q0 25 -12 37q-14 15 -37 15q-25 0 -35 -9q-12 -12 -12 -36h-127
q0 73 51 114q49 41 137 41q79 0 123 -45q45 -45 45 -119q0 -60 -28 -98q-32 -37 -84 -37v-78z" />
    <glyph glyph-name="cngahoa" 
d="M-1004 1782h109q3 -57 39 -80q39 -25 104 -25q66 0 105 25q37 25 37 80h104q-9 -127 -69 -185q-61 -57 -179 -57q-120 0 -180 59q-63 63 -70 183zM-506 2116l-4 -5q-24 -100 -63 -147q-40 -49 -107 -49h-29h-24l-74 20q-33 11 -49 11q-25 0 -39 -13q-13 -13 -27 -49h-94
q23 103 62 148q40 49 104 49h27q15 0 41 -6l73 -21h21h24q27 0 41 14q17 17 23 48h94z" />
    <glyph glyph-name="cnanghoa" 
d="M-1004 1782h109q3 -57 39 -80q39 -25 104 -25q66 0 105 25q37 25 37 80h104q-9 -127 -69 -185q-61 -57 -179 -57q-120 0 -180 59q-63 63 -70 183zM-874 -252h2q0 57 38 92q39 39 95 39t96 -37q37 -36 37 -94t-39 -96.5t-94 -38.5q-56 0 -97 41q-38 39 -38 94z" />
    <glyph glyph-name="bth" 
d="M-932 1106l160 278h248l164 -278h-138l-147 143l-150 -143h-137z" />
    <glyph glyph-name="bsacth" 
d="M-932 1106l160 278h248l164 -278h-138l-147 143l-150 -143h-137zM-35 1561l-246 -279h-122l145 279h223z" />
    <glyph glyph-name="bhuyenth" 
d="M-932 1106l160 278h248l164 -278h-138l-147 143l-150 -143h-137zM-606 1653h223l145 -279h-122z" />
    <glyph glyph-name="bhoith" 
d="M-932 1106l160 278h248l164 -278h-138l-147 143l-150 -143h-137zM-266 1300h-135v158h39q45 0 59 12q16 15 16 46q0 24 -12 36q-14 15 -37 15t-35 -8q-12 -13 -12 -37h-127q0 73 51 114q49 41 137 41q79 0 123 -45q45 -44 45 -119q0 -60 -28 -98q-32 -37 -84 -37v-78z
" />
    <glyph glyph-name="bngath" 
d="M-932 1106l160 278h248l164 -278h-138l-147 143l-150 -143h-137zM-414 1698l-4 -4q-24 -101 -63 -148q-40 -49 -107 -49h-28h-25l-74 21q-32 10 -49 10q-24 0 -39 -12q-14 -15 -26 -50h-95q23 103 62 148q39 49 104 49h27q15 0 41 -6l74 -21h20h25q26 0 41 15
q16 16 22 47h94z" />
    <glyph glyph-name="bnangth" 
d="M-932 1106l160 278h248l164 -278h-138l-147 143l-150 -143h-137zM-782 -283h2q0 57 39 93q38 38 94 38q55 0 96 -36q37 -37 37 -95q0 -57 -39 -96t-94 -39t-96 41q-39 39 -39 94z" />
    <glyph glyph-name="bhoa" 
d="M-1157 1556l160 279h247l164 -279h-137l-147 144l-150 -144h-137z" />
    <glyph glyph-name="bsachoa" 
d="M-1157 1556l160 279h247l164 -279h-137l-147 144l-150 -144h-137zM-260 2011l-246 -278h-123l146 278h223z" />
    <glyph glyph-name="bhuyenhoa" 
d="M-1157 1556l160 279h247l164 -279h-137l-147 144l-150 -144h-137zM-831 2103h223l145 -278h-123z" />
    <glyph glyph-name="bhoihoa" 
d="M-1157 1556l160 279h247l164 -279h-137l-147 144l-150 -144h-137zM-492 1751h-135v158h39q44 0 60 12q16 13 16 45q0 25 -12 37q-15 14 -37 14q-24 0 -35 -8q-12 -12 -12 -37h-127q0 73 51 115q49 41 137 41q78 0 123 -45t45 -119q0 -62 -29.5 -98.5t-83.5 -36.5v-78z
" />
    <glyph glyph-name="bngahoa" 
d="M-1157 1556l160 279h247l164 -279h-137l-147 144l-150 -144h-137zM-639 2148l-4 -4q-24 -101 -64 -147q-39 -49 -106 -49h-29h-24l-74 20q-34 10 -49 10q-24 0 -39 -12q-14 -14 -27 -49h-94q21 101 62 147q39 50 104 50h27q11 0 41 -7l73 -20h21h24q27 0 41 14
q17 15 23 47h94z" />
    <glyph glyph-name="bnanghoa" 
d="M-1157 1556l160 279h247l164 -279h-137l-147 144l-150 -144h-137zM-1008 -272h2q0 54 39 92q40 39 95 39q54 0 96 -37q37 -39 37 -94q0 -56 -39 -97q-40 -39 -94 -39t-97 41q-39 40 -39 95z" />
    <glyph glyph-name="nonbreakingspace" horiz-adv-x="1479" 
 />
  </font>
</defs>
</svg>
