<?xml version="1.0" standalone="no"?>
<!DOCTYPE svg PUBLIC "-//W3C//DTD SVG 1.1//EN" "http://www.w3.org/Graphics/SVG/1.1/DTD/svg11.dtd" >
<svg xmlns="http://www.w3.org/2000/svg" xmlns:xlink="http://www.w3.org/1999/xlink" version="1.1">
<metadata>
Created by FontForge 20170731 at Fri Jan  1 02:30:17 1904
 By Aleksey,,,
</metadata>
<defs>
<font id="Futura-Black-Bold" horiz-adv-x="0" >
  <font-face 
    font-family="Futura-Black"
    font-weight="700"
    font-stretch="normal"
    units-per-em="2048"
    panose-1="2 2 5 0 0 0 0 0 0 0"
    ascent="1638"
    descent="-410"
    x-height="1034"
    cap-height="1464"
    bbox="-1126 -485 2675 2179"
    underline-thickness="379"
    underline-position="-854"
    unicode-range="U+0020-F02A"
  />
<missing-glyph horiz-adv-x="1536" 
d="M256 0v1280h1024v-1280h-1024zM1247 33v1214h-958v-1214h958z" />
    <glyph glyph-name=".notdef" horiz-adv-x="1536" 
d="M256 0v1280h1024v-1280h-1024zM1247 33v1214h-958v-1214h958z" />
    <glyph glyph-name=".null" 
 />
    <glyph glyph-name="nonmarkingreturn" 
 />
    <glyph glyph-name="space" unicode=" " horiz-adv-x="702" 
 />
    <glyph glyph-name="space" unicode="&#x2031;" horiz-adv-x="702" 
 />
    <glyph glyph-name="space" unicode="&#x2025;" horiz-adv-x="702" 
 />
    <glyph glyph-name="space" unicode="&#x2024;" horiz-adv-x="702" 
 />
    <glyph glyph-name="space" unicode="&#x2023;" horiz-adv-x="702" 
 />
    <glyph glyph-name="space" unicode="&#x201f;" horiz-adv-x="702" 
 />
    <glyph glyph-name="space" unicode="&#x201b;" horiz-adv-x="702" 
 />
    <glyph glyph-name="space" unicode="&#x2017;" horiz-adv-x="702" 
 />
    <glyph glyph-name="space" unicode="&#x2016;" horiz-adv-x="702" 
 />
    <glyph glyph-name="space" unicode="&#x2015;" horiz-adv-x="702" 
 />
    <glyph glyph-name="exclam" unicode="!" horiz-adv-x="768" 
d="M135 553v965h496v-965h-496zM100 201q0 100 82 169.5t201 69.5q121 0 203 -69.5t82 -169.5t-82.5 -170t-202.5 -70q-118 0 -201 70q-82 70 -82 170z" />
    <glyph glyph-name="quotedbl" unicode="&#x22;" horiz-adv-x="758" 
d="M690 1440v-563h-260v563h260zM326 1440v-563h-258v563h258z" />
    <glyph glyph-name="numbersign" unicode="#" horiz-adv-x="1575" 
d="M946 834h-239l-78 -213h239zM938 1470l-129 -366h227l129 366h289l-129 -366h256l-100 -270h-252l-76 -213h258l-100 -271h-254l-131 -366h-289l131 366h-227l-131 -366h-289l131 366h-258l100 271h254l74 213h-258l98 270h258l129 366h289z" />
    <glyph glyph-name="dollar" unicode="$" horiz-adv-x="1403" 
d="M47 168l162 385q112 -87 230.5 -133.5t232.5 -46.5q71 0 110 24q41 26 41 68q0 32 -35.5 53t-164.5 45l-148 31q-172 33 -268 147q-98 110 -98 273q0 181 129 307q129 123 346 147v152h237v-147q110 -4 223 -33q109 -32 207 -86l-157 -367q-101 64 -185 94
q-81 31 -159 31q-75 0 -113 -27q-43 -24 -43 -67q0 -59 192 -92q5 -1 9 -1.5t8 -2.5l137 -27q179 -35 277 -131q98 -103 98 -248q0 -217 -127 -350q-132 -135 -381 -168v-164h-238v164q-148 3 -272 45q-131 43 -250 125z" />
    <glyph glyph-name="percent" unicode="%" horiz-adv-x="1851" 
d="M428 879q44 0 61 45q19 44 19 151q0 109 -19 154q-17 45 -61 45t-61 -45q-21 -43 -21 -154q0 -107 21 -149q18 -47 61 -47zM803 1075q0 -184 -103 -293q-101 -110 -274 -110q-172 0 -274 108q-103 112 -103 295t103 295q101 109 274 109t274 -109q103 -112 103 -295z
M1444 168q44 0 61 45q19 45 19 154q0 106 -19 151q-17 45 -61 45q-43 0 -62 -45q-20 -44 -20 -151q0 -108 20 -152q20 -47 62 -47zM1819 367q0 -187 -103 -295q-100 -111 -272 -111q-173 0 -275 111q-102 108 -102 295q0 185 102 295q103 108 275 108t274 -108
q101 -107 101 -295zM408 -39l845 1518h211l-850 -1518h-206z" />
    <glyph glyph-name="percent" unicode="&#x202f;" horiz-adv-x="1851" 
d="M428 879q44 0 61 45q19 44 19 151q0 109 -19 154q-17 45 -61 45t-61 -45q-21 -43 -21 -154q0 -107 21 -149q18 -47 61 -47zM803 1075q0 -184 -103 -293q-101 -110 -274 -110q-172 0 -274 108q-103 112 -103 295t103 295q101 109 274 109t274 -109q103 -112 103 -295z
M1444 168q44 0 61 45q19 45 19 154q0 106 -19 151q-17 45 -61 45q-43 0 -62 -45q-20 -44 -20 -151q0 -108 20 -152q20 -47 62 -47zM1819 367q0 -187 -103 -295q-100 -111 -272 -111q-173 0 -275 111q-102 108 -102 295q0 185 102 295q103 108 275 108t274 -108
q101 -107 101 -295zM408 -39l845 1518h211l-850 -1518h-206z" />
    <glyph glyph-name="percent" unicode="&#x202e;" horiz-adv-x="1851" 
d="M428 879q44 0 61 45q19 44 19 151q0 109 -19 154q-17 45 -61 45t-61 -45q-21 -43 -21 -154q0 -107 21 -149q18 -47 61 -47zM803 1075q0 -184 -103 -293q-101 -110 -274 -110q-172 0 -274 108q-103 112 -103 295t103 295q101 109 274 109t274 -109q103 -112 103 -295z
M1444 168q44 0 61 45q19 45 19 154q0 106 -19 151q-17 45 -61 45q-43 0 -62 -45q-20 -44 -20 -151q0 -108 20 -152q20 -47 62 -47zM1819 367q0 -187 -103 -295q-100 -111 -272 -111q-173 0 -275 111q-102 108 -102 295q0 185 102 295q103 108 275 108t274 -108
q101 -107 101 -295zM408 -39l845 1518h211l-850 -1518h-206z" />
    <glyph glyph-name="percent" unicode="&#x202d;" horiz-adv-x="1851" 
d="M428 879q44 0 61 45q19 44 19 151q0 109 -19 154q-17 45 -61 45t-61 -45q-21 -43 -21 -154q0 -107 21 -149q18 -47 61 -47zM803 1075q0 -184 -103 -293q-101 -110 -274 -110q-172 0 -274 108q-103 112 -103 295t103 295q101 109 274 109t274 -109q103 -112 103 -295z
M1444 168q44 0 61 45q19 45 19 154q0 106 -19 151q-17 45 -61 45q-43 0 -62 -45q-20 -44 -20 -151q0 -108 20 -152q20 -47 62 -47zM1819 367q0 -187 -103 -295q-100 -111 -272 -111q-173 0 -275 111q-102 108 -102 295q0 185 102 295q103 108 275 108t274 -108
q101 -107 101 -295zM408 -39l845 1518h211l-850 -1518h-206z" />
    <glyph glyph-name="percent" unicode="&#x202c;" horiz-adv-x="1851" 
d="M428 879q44 0 61 45q19 44 19 151q0 109 -19 154q-17 45 -61 45t-61 -45q-21 -43 -21 -154q0 -107 21 -149q18 -47 61 -47zM803 1075q0 -184 -103 -293q-101 -110 -274 -110q-172 0 -274 108q-103 112 -103 295t103 295q101 109 274 109t274 -109q103 -112 103 -295z
M1444 168q44 0 61 45q19 45 19 154q0 106 -19 151q-17 45 -61 45q-43 0 -62 -45q-20 -44 -20 -151q0 -108 20 -152q20 -47 62 -47zM1819 367q0 -187 -103 -295q-100 -111 -272 -111q-173 0 -275 111q-102 108 -102 295q0 185 102 295q103 108 275 108t274 -108
q101 -107 101 -295zM408 -39l845 1518h211l-850 -1518h-206z" />
    <glyph glyph-name="percent" unicode="&#x202b;" horiz-adv-x="1851" 
d="M428 879q44 0 61 45q19 44 19 151q0 109 -19 154q-17 45 -61 45t-61 -45q-21 -43 -21 -154q0 -107 21 -149q18 -47 61 -47zM803 1075q0 -184 -103 -293q-101 -110 -274 -110q-172 0 -274 108q-103 112 -103 295t103 295q101 109 274 109t274 -109q103 -112 103 -295z
M1444 168q44 0 61 45q19 45 19 154q0 106 -19 151q-17 45 -61 45q-43 0 -62 -45q-20 -44 -20 -151q0 -108 20 -152q20 -47 62 -47zM1819 367q0 -187 -103 -295q-100 -111 -272 -111q-173 0 -275 111q-102 108 -102 295q0 185 102 295q103 108 275 108t274 -108
q101 -107 101 -295zM408 -39l845 1518h211l-850 -1518h-206z" />
    <glyph glyph-name="percent" unicode="&#x202a;" horiz-adv-x="1851" 
d="M428 879q44 0 61 45q19 44 19 151q0 109 -19 154q-17 45 -61 45t-61 -45q-21 -43 -21 -154q0 -107 21 -149q18 -47 61 -47zM803 1075q0 -184 -103 -293q-101 -110 -274 -110q-172 0 -274 108q-103 112 -103 295t103 295q101 109 274 109t274 -109q103 -112 103 -295z
M1444 168q44 0 61 45q19 45 19 154q0 106 -19 151q-17 45 -61 45q-43 0 -62 -45q-20 -44 -20 -151q0 -108 20 -152q20 -47 62 -47zM1819 367q0 -187 -103 -295q-100 -111 -272 -111q-173 0 -275 111q-102 108 -102 295q0 185 102 295q103 108 275 108t274 -108
q101 -107 101 -295zM408 -39l845 1518h211l-850 -1518h-206z" />
    <glyph glyph-name="percent" unicode="&#x2029;" horiz-adv-x="1851" 
d="M428 879q44 0 61 45q19 44 19 151q0 109 -19 154q-17 45 -61 45t-61 -45q-21 -43 -21 -154q0 -107 21 -149q18 -47 61 -47zM803 1075q0 -184 -103 -293q-101 -110 -274 -110q-172 0 -274 108q-103 112 -103 295t103 295q101 109 274 109t274 -109q103 -112 103 -295z
M1444 168q44 0 61 45q19 45 19 154q0 106 -19 151q-17 45 -61 45q-43 0 -62 -45q-20 -44 -20 -151q0 -108 20 -152q20 -47 62 -47zM1819 367q0 -187 -103 -295q-100 -111 -272 -111q-173 0 -275 111q-102 108 -102 295q0 185 102 295q103 108 275 108t274 -108
q101 -107 101 -295zM408 -39l845 1518h211l-850 -1518h-206z" />
    <glyph glyph-name="percent" unicode="&#x2028;" horiz-adv-x="1851" 
d="M428 879q44 0 61 45q19 44 19 151q0 109 -19 154q-17 45 -61 45t-61 -45q-21 -43 -21 -154q0 -107 21 -149q18 -47 61 -47zM803 1075q0 -184 -103 -293q-101 -110 -274 -110q-172 0 -274 108q-103 112 -103 295t103 295q101 109 274 109t274 -109q103 -112 103 -295z
M1444 168q44 0 61 45q19 45 19 154q0 106 -19 151q-17 45 -61 45q-43 0 -62 -45q-20 -44 -20 -151q0 -108 20 -152q20 -47 62 -47zM1819 367q0 -187 -103 -295q-100 -111 -272 -111q-173 0 -275 111q-102 108 -102 295q0 185 102 295q103 108 275 108t274 -108
q101 -107 101 -295zM408 -39l845 1518h211l-850 -1518h-206z" />
    <glyph glyph-name="percent" unicode="&#x2027;" horiz-adv-x="1851" 
d="M428 879q44 0 61 45q19 44 19 151q0 109 -19 154q-17 45 -61 45t-61 -45q-21 -43 -21 -154q0 -107 21 -149q18 -47 61 -47zM803 1075q0 -184 -103 -293q-101 -110 -274 -110q-172 0 -274 108q-103 112 -103 295t103 295q101 109 274 109t274 -109q103 -112 103 -295z
M1444 168q44 0 61 45q19 45 19 154q0 106 -19 151q-17 45 -61 45q-43 0 -62 -45q-20 -44 -20 -151q0 -108 20 -152q20 -47 62 -47zM1819 367q0 -187 -103 -295q-100 -111 -272 -111q-173 0 -275 111q-102 108 -102 295q0 185 102 295q103 108 275 108t274 -108
q101 -107 101 -295zM408 -39l845 1518h211l-850 -1518h-206z" />
    <glyph glyph-name="ampersand" unicode="&#x26;" horiz-adv-x="1712" 
d="M805 397l-172 178q-44 -26 -62 -53q-18 -24 -18 -53q0 -45 37 -76q34 -31 92 -31q34 0 66 9q34 11 57 26zM795 983q41 23 63 55q23 31 23 64q0 36 -23 59q-21 25 -57 25t-60 -27t-24 -65q0 -33 20 -60q24 -33 58 -51zM1081 123q-106 -73 -227 -111q-123 -37 -254 -37
q-246 0 -395 125q-77 63 -115.5 144t-38.5 178q0 152 92 258q92 104 254 131q-81 71 -112 135q-37 64 -37 146q0 182 147 292q147 113 389 113q230 0 375 -115q144 -112 144 -290q0 -127 -66 -211q-70 -86 -199 -125l140 -129q64 49 112 100q54 57 103 121l288 -297
q-46 -55 -106 -102q-64 -51 -129 -84l358 -365h-610z" />
    <glyph glyph-name="quotesingle" unicode="'" horiz-adv-x="393" 
d="M326 1440v-563h-258v563h258z" />
    <glyph glyph-name="parenleft" unicode="(" horiz-adv-x="891" 
d="M436 -451q-76 124 -134 247t-97 251q-74 245 -74 504q0 255 84 518q41 129 104.5 262.5t151.5 276.5l373 -205q-126 -212 -191 -424q-61 -210 -61 -436q0 -190 57 -381q58 -194 178 -424z" />
    <glyph glyph-name="parenright" unicode=")" horiz-adv-x="891" 
d="M455 -451l-392 189q120 227 179 424q57 191 57 381q0 226 -61 436q-65 212 -191 424l373 205q55 -88 103.5 -179t89 -185t65.5 -175q82 -256 82 -518q0 -133 -19 -259.5t-55 -244.5q-19 -62 -44 -127t-53 -124.5t-57 -113t-77 -133.5z" />
    <glyph glyph-name="asterisk" unicode="*" horiz-adv-x="1067" 
d="M608 1214l197 156l117 -196l-238 -93l238 -90l-117 -198l-197 159l39 -254h-231l39 254l-197 -159l-115 198l240 90l-240 93l115 196l197 -156l-39 250h231z" />
    <glyph glyph-name="plus" unicode="+" horiz-adv-x="1706" 
d="M993 1221v-473h459v-273h-459v-475h-280v475h-459v273h459v473h280z" />
    <glyph glyph-name="comma" unicode="," horiz-adv-x="702" 
d="M-18 -350l237 725h500l-344 -725h-393z" />
    <glyph glyph-name="hyphen" unicode="-" horiz-adv-x="983" 
d="M150 305v418h684v-418h-684z" />
    <glyph glyph-name="period" unicode="." horiz-adv-x="702" 
d="M66 209q0 98 84 172q82 70 200 70q121 0 203 -70q82 -73 82 -172q0 -98 -82 -168q-84 -72 -203 -72q-117 0 -203 72q-81 69 -81 168z" />
    <glyph glyph-name="slash" unicode="/" horiz-adv-x="958" 
d="M0 -190l717 1687h241l-716 -1687h-242z" />
    <glyph glyph-name="zero" unicode="0" horiz-adv-x="1403" 
d="M584 721q0 -154 28 -232q28 -73 90 -73q61 0 89 73q28 75 28 232q0 158 -28 231q-29 74 -89 74q-61 0 -90 -72q-28 -73 -28 -233zM72 721q0 351 170 557q83 100 198.5 150.5t261.5 50.5q295 0 461 -201q168 -198 168 -557t-168 -557q-165 -203 -461 -203q-292 0 -460 205
q-170 203 -170 555z" />
    <glyph glyph-name="one" unicode="1" horiz-adv-x="1403" 
d="M500 1006h-219v444h745v-1450h-526v1006z" />
    <glyph glyph-name="two" unicode="2" horiz-adv-x="1403" 
d="M33 0l653 778q47 60 65.5 94t18.5 70q0 43 -25 68q-21 24 -65 24q-48 0 -74 -41q-22 -41 -22 -129h-488v17q0 277 158 440q79 79 188.5 118.5t249.5 39.5q269 0 430 -148q162 -143 162 -385q0 -129 -57 -227q-58 -104 -191 -213l-123 -103h369v-403h-1249z" />
    <glyph glyph-name="three" unicode="3" horiz-adv-x="1403" 
d="M633 907h22q70 0 103 27q33 24 33 74q0 38 -23 61q-22 25 -59 25q-35 0 -58 -27q-20 -26 -20 -76h-484q4 239 152 365q144 123 422 123q250 0 399 -113q150 -113 150 -297q0 -113 -51 -184q-52 -73 -158 -111q128 -27 196 -117q68 -87 68 -225q0 -215 -164 -344
q-163 -127 -442 -127q-296 0 -465.5 147.5t-169.5 405.5v4h504q3 -74 30 -110q27 -39 80 -39q52 0 84 32q31 34 31 86q0 62 -37 93q-35 32 -106 32h-23q-6 -2 -14 -2v297z" />
    <glyph glyph-name="four" unicode="4" horiz-adv-x="1403" 
d="M694 0v291h-626v383l550 790h578v-790h158v-383h-158v-291h-502zM524 674h209v198q0 70 2 97q4 46 8 67q-13 -33 -36 -78q-15 -26 -64 -104z" />
    <glyph glyph-name="five" unicode="5" horiz-adv-x="1403" 
d="M152 578l139 872h907v-391h-577l-15 -88q66 8 98.5 10t96.5 2q237 0 377 -129q137 -125 137 -350q0 -128 -43.5 -227.5t-134.5 -174.5q-177 -143 -498 -143q-163 0 -295 33q-143 33 -270 100l65 408q169 -71 279 -99q115 -28 200 -28q54 0 94 7t60 19q49 28 49 86
q0 67 -71 105q-74 37 -207 37q-67 0 -160 -11q-112 -15 -231 -38z" />
    <glyph glyph-name="six" unicode="6" horiz-adv-x="1403" 
d="M709 408q54 0 88 38q34 42 34 103q0 64 -32 102q-33 39 -90 39q-56 0 -88 -39q-35 -40 -35 -102t35 -103q32 -38 88 -38zM829 1032q13 0 21 2h31q219 0 340 -121q122 -118 122 -335q0 -273 -178 -445q-173 -172 -454 -172t-455 168q-178 166 -178 424q0 151 72 301
q38 77 106 173t176 228l172 205h686z" />
    <glyph glyph-name="seven" unicode="7" horiz-adv-x="1403" 
d="M125 0l520 1001h-508v449h1313l-733 -1450h-592z" />
    <glyph glyph-name="eight" unicode="8" horiz-adv-x="1403" 
d="M702 324q51 0 80 38q31 37 31 99q0 63 -31 98q-27 37 -80 37q-51 0 -81 -37q-31 -35 -31 -98t33 -99q29 -38 79 -38zM700 899q36 0 62 29q22 28 22 73q0 46 -22 74q-26 29 -62 29q-38 0 -59 -29q-23 -30 -23 -74q0 -43 23 -73q21 -29 59 -29zM369 762q-115 32 -179 112
q-61 79 -61 189q0 179 160 299q159 117 413 117q253 0 412 -117q160 -120 160 -299q0 -110 -62 -189q-59 -79 -176 -112q139 -44 213 -133q74 -91 74 -213q0 -205 -168 -330q-169 -123 -453 -123q-285 0 -452 125q-170 126 -170 328q0 125 76 213q75 90 213 133z" />
    <glyph glyph-name="nine" unicode="9" horiz-adv-x="1403" 
d="M707 1036q-56 0 -89.5 -39.5t-33.5 -101.5q0 -60 34 -100q33 -39 89 -39q57 0 90 39q32 35 32 100q0 62 -34 102q-33 39 -88 39zM586 416h-21q-6 -2 -33 -2q-214 0 -339 123q-125 121 -125 335q0 95 24 179q30 91 76 159q89 132 225 199q137 70 312 70q276 0 454 -164
q178 -163 178 -422q0 -149 -71 -297q-70 -148 -283 -401l-172 -205h-686z" />
    <glyph glyph-name="colon" unicode=":" horiz-adv-x="768" 
d="M100 795q0 96 82 168q82 69 201 69q121 0 203 -69q82 -72 82 -168q0 -100 -82.5 -170t-202.5 -70q-118 0 -201 70q-82 70 -82 170zM100 209q0 99 82 172q83 70 201 70q120 0 203 -70q82 -73 82 -172q0 -98 -82 -168q-86 -72 -203 -72q-118 0 -201 70q-82 70 -82 170z" />
    <glyph glyph-name="semicolon" unicode=";" horiz-adv-x="768" 
d="M199 795q0 101 81.5 170t200.5 69q120 0 201 -69q84 -72 84 -170q0 -100 -82 -170t-203 -70q-118 0 -200 69.5t-82 170.5zM0 -350l238 725h499l-344 -725h-393z" />
    <glyph glyph-name="less" unicode="&#x3c;" horiz-adv-x="1706" 
d="M1442 938l-801 -328l801 -327v-299l-1178 487v281l1178 487v-301z" />
    <glyph glyph-name="equal" unicode="=" horiz-adv-x="1706" 
d="M1452 512v-272h-1198v272h1198zM1452 983v-272h-1198v272h1198z" />
    <glyph glyph-name="greater" unicode="&#x3e;" horiz-adv-x="1706" 
d="M1442 752v-281l-1178 -487v299l801 327l-801 328v301z" />
    <glyph glyph-name="question" unicode="?" horiz-adv-x="1247" 
d="M311 195q0 96 82 163q85 68 203 68t203 -68q82 -67 82 -163q0 -97 -82 -164q-83 -70 -203 -70t-203 70q-82 67 -82 164zM436 514v379q37 -10 60 -12q31 -7 51 -7q73 0 117 39q41 39 41 103q0 45 -23 76q-23 26 -66 26t-65 -28q-24 -33 -27 -93h-504q16 240 177 380.5
t417 140.5q260 0 422 -150q162 -146 162 -385q0 -216 -160 -348q-156 -135 -417 -135q-26 0 -86 4q-26 2 -99 10z" />
    <glyph glyph-name="at" unicode="@" horiz-adv-x="2048" 
d="M1241 911l49 82h242l-156 -626q-4 -20 -4 -19v-12q0 -25 12 -37q13 -12 35 -12q127 0 232 141q50 70 76 155.5t26 176.5q0 237 -174 381q-177 145 -463 145q-138 0 -266 -35q-125 -36 -225 -106q-155 -109 -238 -268q-84 -166 -84 -351q0 -147 49.5 -262.5t151.5 -206.5
q199 -174 534 -174q153 0 308 47q144 46 278 140l115 -160q-160 -120 -342.5 -180t-380.5 -60q-188 0 -354 56q-162 49 -295 155q-149 118 -224 279q-73 158 -73 360q0 182 57 334q52 155 162 283q150 177 362 272q108 49 220 71.5t241 22.5q384 0 627 -207
q239 -206 239 -532q0 -170 -67 -313q-71 -146 -197 -244q-74 -58 -153 -84q-85 -29 -175 -29q-107 0 -165 37q-59 41 -68 117q-58 -79 -127 -117q-75 -35 -162 -35q-171 0 -258 88q-86 91 -86 262q0 124 36 226.5t108 185.5q144 164 356 164q71 0 131 -29q58 -28 90 -82z
M1126 494l48 194q-11 68 -44 107q-33 36 -90 36q-97 0 -168 -116q-71 -118 -71 -275q0 -71 30 -110q32 -41 87 -41q71 0 129 55q59 57 79 150z" />
    <glyph glyph-name="A" unicode="A" horiz-adv-x="1507" 
d="M641 532h219l-45 166q-34 129 -45 195q-11 59 -14 127h-11q-3 -68 -14 -127q-14 -81 -45 -195zM-57 0l522 1464h586l512 -1464h-566l-47 184h-397l-45 -184h-565z" />
    <glyph glyph-name="B" unicode="B" horiz-adv-x="1434" 
d="M631 596v-234h88q78 0 123 31q41 33 41 86q0 58 -41 86q-43 31 -123 31h-88zM631 1116v-205h69q64 0 99 27q32 26 32 76q0 51 -32 76q-33 26 -99 26h-69zM137 0v1464h701q116 0 202.5 -26t149.5 -78q125 -107 125 -295q0 -119 -60 -199q-57 -79 -168 -104
q151 -31 222 -117q73 -85 73 -231q0 -204 -139 -310q-139 -104 -407 -104h-699z" />
    <glyph glyph-name="C" unicode="C" horiz-adv-x="1309" 
d="M1214 883q-68 68 -147 102q-78 35 -158 35q-129 0 -207 -80q-79 -79 -79 -211t75 -207.5t201 -75.5q75 0 156 33q84 38 170 103l-17 -551q-92 -37 -172 -51q-83 -19 -172 -19q-107 0 -207 25q-96 21 -178 67q-195 115 -293 283q-100 172 -100 393q0 169 57 303
q54 136 164 248q109 109 252 164t311 55q87 0 177 -18q88 -20 167 -56v-542z" />
    <glyph glyph-name="D" unicode="D" horiz-adv-x="1620" 
d="M659 446q180 5 261 70q81 69 81 215q0 142 -77 213q-80 70 -242 70h-23v-568zM137 0v1464h426q101 0 182.5 -5t163.5 -17q141 -22 234 -70q191 -101 293 -264q100 -166 100 -377q0 -212 -100 -375q-102 -162 -293 -264q-90 -48 -236 -69q-147 -23 -383 -23h-387z" />
    <glyph glyph-name="E" unicode="E" horiz-adv-x="1204" 
d="M137 0v1464h979v-397h-463v-141h420v-375h-420v-154h475v-397h-991z" />
    <glyph glyph-name="F" unicode="F" horiz-adv-x="1159" 
d="M137 0v1464h979v-397h-452v-170h409v-375h-409v-522h-527z" />
    <glyph glyph-name="G" unicode="G" horiz-adv-x="1708" 
d="M1069 524h-229v344h809q2 -30 2.5 -42t1.5 -25v-39q0 -127 -25 -230q-20 -97 -69 -184q-112 -189 -289 -287q-175 -100 -402 -100q-162 0 -309 55q-137 54 -252 164q-108 110 -166 246q-55 137 -55 303q0 169 57 303q54 135 164 246q104 104 252 164q143 55 309 55
q224 0 400 -98q178 -101 286 -289l-469 -174q-37 63 -90 90q-50 31 -118 31q-117 0 -187 -88q-69 -88 -69 -240q0 -158 69 -240q71 -86 199 -86q74 0 125 31q47 36 55 90z" />
    <glyph glyph-name="H" unicode="H" horiz-adv-x="1651" 
d="M137 0v1464h527v-487h321v487h526v-1464h-526v516h-321v-516h-527z" />
    <glyph glyph-name="I" unicode="I" horiz-adv-x="829" 
d="M147 0v1464h535v-1464h-535z" />
    <glyph glyph-name="J" unicode="J" horiz-adv-x="1042" 
d="M401 655v809h527v-952q0 -121 -17 -195q-15 -72 -53 -131q-69 -109 -180 -166q-118 -59 -252 -59q-136 0 -240 39q-114 44 -206 121l172 393q40 -44 81 -72q39 -22 70 -22q57 0 78 43q20 41 20 192z" />
    <glyph glyph-name="K" unicode="K" horiz-adv-x="1565" 
d="M137 0v1464h516v-624l334 624h596l-442 -721l504 -743h-637l-355 612v-612h-516z" />
    <glyph glyph-name="L" unicode="L" horiz-adv-x="1200" 
d="M137 0v1464h527v-989h512v-475h-1039z" />
    <glyph glyph-name="M" unicode="M" horiz-adv-x="1999" 
d="M1475 0l-64 580l-6 68t-6 67q-8 84 -10 133q-11 -66 -25 -133q-12 -55 -41 -152l-168 -563h-313l-168 563q-26 80 -41 152q-19 88 -25 133q-8 -96 -10 -135q-4 -43 -12 -133l-64 -580h-516l250 1464h543l104 -362q2 -10 15 -51q67 -240 81 -377h9q12 94 36 198
q19 91 64 236l109 356h542l232 -1464h-516z" />
    <glyph glyph-name="N" unicode="N" horiz-adv-x="1731" 
d="M137 0v1464h516l455 -766q-9 53 -12 113q-4 82 -4 162v491h507v-1464h-520l-450 760q9 -49 12 -105q4 -78 4 -127v-528h-508z" />
    <glyph glyph-name="O" unicode="O" horiz-adv-x="1735" 
d="M868 453q111 0 179 75q67 77 67 201q0 127 -67 203q-69 76 -179 76t-180 -76q-67 -76 -67 -203q0 -124 67 -201q69 -75 180 -75zM1651 729q0 -162 -58 -299q-60 -142 -166 -248q-108 -105 -253 -164q-145 -57 -306 -57q-163 0 -307 57q-140 57 -254 166
q-110 111 -166 244q-55 137 -55 301t55 301q58 136 166 246q110 107 252 166q143 55 309 55q164 0 308 -55q143 -58 254 -166q106 -108 165 -246q56 -139 56 -301z" />
    <glyph glyph-name="P" unicode="P" horiz-adv-x="1450" 
d="M137 0v1464h629q332 0 485 -129q154 -126 154 -405q0 -258 -137 -377q-139 -121 -439 -121h-165v-432h-527zM666 1057v-244h82q77 0 114 33q41 30 41 88q0 55 -41 90q-37 33 -114 33h-82z" />
    <glyph glyph-name="Q" unicode="Q" horiz-adv-x="1735" 
d="M1333 -123l-106 168q-92 -42 -178 -59q-84 -21 -181 -21q-162 0 -309 55q-137 54 -252 164q-110 111 -166 244q-55 137 -55 303q0 169 57 303q54 138 164 246q105 105 250 162q143 55 311 55q166 0 310 -55q148 -60 252 -164q106 -108 165 -246q56 -139 56 -301
q0 -117 -29 -225q-35 -110 -94 -199l221 -246zM776 594l332 65q2 14 2.5 20.5t1.5 14.5q2 13 2 37q0 127 -67 203q-69 76 -179 76t-180 -76q-67 -76 -67 -203q0 -125 67 -199q64 -73 180 -73h27z" />
    <glyph glyph-name="R" unicode="R" horiz-adv-x="1466" 
d="M653 1087v-286h82q77 0 117 37q39 35 39 104q0 70 -39 109q-40 36 -117 36h-82zM137 0v1464h662q289 0 440 -127q152 -128 152 -366q0 -156 -76 -256q-78 -104 -207 -119l391 -596h-590l-256 483v-483h-516z" />
    <glyph glyph-name="S" unicode="S" horiz-adv-x="1251" 
d="M4 125l168 410q119 -81 203 -115q87 -37 164 -37q56 0 86 20q30 22 30 56q0 60 -155 94q-33 6 -78 16q-164 41 -252 142q-86 101 -86 254q0 233 170 385q169 147 442 147q130 0 248 -33q125 -33 246 -100l-160 -383q-80 58 -151 86q-84 29 -150 29q-55 0 -86 -19
q-29 -19 -29 -51q0 -63 220 -108q29 -9 53 -13q151 -33 237 -139q88 -103 88 -254q0 -244 -176 -397q-88 -78 -203 -116t-253 -38q-141 0 -287 41t-289 123z" />
    <glyph glyph-name="T" unicode="T" horiz-adv-x="1178" 
d="M326 0v985h-293v479h1112v-479h-293v-985h-526z" />
    <glyph glyph-name="U" unicode="U" horiz-adv-x="1602" 
d="M121 670v794h526v-798q0 -141 33 -191q33 -53 113 -53q79 0 112 53q35 56 35 191v798h526v-794q0 -160 -20 -256q-22 -106 -66 -170q-89 -138 -239 -209q-156 -74 -348 -74q-193 0 -349 74q-150 71 -239 209q-41 64 -64 168q-20 96 -20 258z" />
    <glyph glyph-name="V" unicode="V" horiz-adv-x="1462" 
d="M487 0l-559 1464h570l155 -530q25 -84 52 -197q18 -93 20 -149h10q6 50 29 155q11 50 47 179l164 542h559l-557 -1464h-490z" />
    <glyph glyph-name="W" unicode="W" horiz-adv-x="2001" 
d="M991 741q-3 -62 -33 -206q-2 -9 -4 -19t-4 -16l-110 -500h-459l-428 1464h528l115 -645q8 -46 22 -155q7 -48 11 -134h12q3 92 31 230q2 8 2.5 12t1.5 8l139 684h371l139 -684l4 -20q28 -141 31 -230h12q4 86 10 134q5 28 12 80.5t11 74.5l115 645h528l-428 -1464h-459
l-110 500q-1 5 -2.5 9.5t-3.5 13.5t-3 12q-30 148 -32 206h-19z" />
    <glyph glyph-name="X" unicode="X" horiz-adv-x="1466" 
d="M780 332q-21 44 -30 74q-14 29 -17 49q-2 -15 -14 -47q-4 -12 -12.5 -29t-22.5 -47l-166 -332h-602l520 780l-459 684h601l108 -239q3 -3 6 -13q32 -68 41 -108q6 27 19 53q4 14 10 28t16 40l111 239h598l-457 -684l520 -780h-602z" />
    <glyph glyph-name="Y" unicode="Y" horiz-adv-x="1305" 
d="M375 0v647l-490 817h600l123 -284q26 -64 39 -111q2 -4 2.5 -6t1.5 -4q8 30 37 102q4 8 5.5 12.5t2.5 6.5l121 284h596l-508 -817v-647h-530z" />
    <glyph glyph-name="Z" unicode="Z" horiz-adv-x="1380" 
d="M-53 0l655 1028h-512v436h1350l-637 -1013h565v-451h-1421z" />
    <glyph glyph-name="bracketleft" unicode="[" horiz-adv-x="891" 
d="M180 -420v1970h664v-342h-256v-1286h256v-342h-664z" />
    <glyph glyph-name="backslash" unicode="\" horiz-adv-x="958" 
d="M717 -190l-717 1687h242l716 -1687h-241z" />
    <glyph glyph-name="bracketright" unicode="]" horiz-adv-x="891" 
d="M711 -420h-662v342h254v1286h-254v342h662v-1970z" />
    <glyph glyph-name="asciicircum" unicode="^" horiz-adv-x="2048" 
d="M1192 1462l442 -565h-303l-307 309l-309 -309h-303l442 565h338z" />
    <glyph glyph-name="underscore" unicode="_" horiz-adv-x="1024" 
d="M1024 -201v-282h-1024v282h1024z" />
    <glyph glyph-name="grave" unicode="`" horiz-adv-x="1024" 
d="M215 1522h297l180 -351h-166z" />
    <glyph glyph-name="a" unicode="a" horiz-adv-x="1389" 
d="M549 520q0 -68 37 -106q33 -41 92 -41q61 0 94 41q35 40 35 106q0 68 -35 109q-38 41 -94 41q-57 0 -92 -41q-37 -40 -37 -109zM823 0v156q-77 -103 -157 -148q-85 -47 -181 -47q-179 0 -299 154q-58 73 -88 173.5t-30 219.5q0 253 116 405q114 154 301 154q97 0 174 -41
q79 -44 146 -129v137h481v-1034h-463z" />
    <glyph glyph-name="b" unicode="b" horiz-adv-x="1389" 
d="M840 514q0 66 -35 109q-39 41 -94 41q-57 0 -93 -41q-36 -40 -36 -109q0 -67 36 -111q35 -43 93 -43q56 0 94 43q35 46 35 111zM104 1550h492v-481q0 -78 -2 -106q-3 -53 -8 -76q61 88 141 135q79 43 176 43q182 0 299 -152q119 -149 119 -393q0 -254 -115 -405
q-114 -154 -303 -154q-101 0 -184 47q-86 48 -150 144v-152h-465v1550z" />
    <glyph glyph-name="c" unicode="c" horiz-adv-x="950" 
d="M891 592q-48 39 -82 53q-46 17 -88 17q-74 0 -121 -39q-45 -39 -45 -109q0 -65 43 -104q47 -41 115 -41q46 0 90 20q41 18 88 57v-411q-71 -35 -150 -55q-72 -19 -143 -19q-118 0 -213 39q-101 41 -174 113q-79 79 -123 182q-41 102 -41 215q0 84 21 154q21 75 61 141
q40 64 90 113t109 81q121 68 270 68q70 0 139 -14q79 -19 154 -43v-418z" />
    <glyph glyph-name="d" unicode="d" horiz-adv-x="1389" 
d="M678 664q-57 0 -92 -41q-37 -40 -37 -109q0 -68 37 -111q34 -43 92 -43t92 43q37 43 37 111t-35 109q-38 41 -94 41zM1286 1550v-1550h-467v152q-66 -98 -147 -144q-85 -47 -187 -47q-186 0 -303 154q-114 150 -114 405q0 119 30 219.5t88 173.5q117 152 299 152
q100 0 177 -43q79 -46 141 -135q-3 31 -6 76q-4 56 -4 106v481h493z" />
    <glyph glyph-name="e" unicode="e" horiz-adv-x="1321" 
d="M1272 434h-713v-16q0 -76 29 -117q26 -39 86 -39q36 0 61 21q26 19 41 59l465 -31q-61 -167 -211 -260q-149 -90 -364 -90q-120 0 -224 37q-111 40 -188 106q-94 83 -143 187q-50 108 -50 223q0 120 52 225q23 53 57 97t84 88q85 73 186 106q104 37 226 37q81 0 158 -17
t141 -49q127 -65 219 -194q46 -66 67 -143q23 -80 23 -172v-35q0 -17 -2 -23zM563 659l228 -2q-5 63 -31 91q-28 30 -82 30q-46 0 -78 -30q-28 -33 -37 -89z" />
    <glyph glyph-name="f" unicode="f" horiz-adv-x="872" 
d="M176 0v653h-135v381h135v117q0 215 115 330q116 114 330 114q56 0 112 -6q53 -6 113 -18v-389q1 0 -23 4q-48 4 -49 4q-51 0 -74 -29q-22 -28 -22 -96v-31h168v-381h-168v-653h-502z" />
    <glyph glyph-name="g" unicode="g" horiz-adv-x="1389" 
d="M565 541q0 -62 33 -95q34 -36 92 -36q59 0 92 36q35 35 35 95q0 58 -35 96q-33 37 -92 37q-55 0 -90 -35q-35 -43 -35 -98zM805 94v90q-73 -80 -148 -114q-75 -37 -172 -37q-183 0 -299 137q-58 65 -88 155t-30 195q0 246 114 398q113 149 303 149q95 0 177 -41
q77 -41 143 -125v133h481v-884q0 -138 -12 -203q-12 -69 -39 -125q-64 -132 -225 -203q-165 -68 -414 -68q-135 0 -260 25q-115 23 -221 72l108 334q91 -55 168 -80q78 -27 164 -27q120 0 186 55q64 58 64 164z" />
    <glyph glyph-name="h" unicode="h" horiz-adv-x="1376" 
d="M109 0v1550h495v-428q0 -104 -2 -137q-1 -16 -6 -94q64 88 143 133q80 43 179 43q166 0 262 -100q96 -104 96 -273v-694h-504v522q0 80 -14 107q-16 28 -56 28q-45 0 -67 -34q-23 -38 -23 -101v-522h-503z" />
    <glyph glyph-name="i" unicode="i" horiz-adv-x="739" 
d="M119 -4v1034h502v-1034h-502zM508 1290q0 -57 -37 -88q-39 -31 -100 -31q-62 0 -101 31q-37 32 -37 88q0 57 37 88q35 29 101 29q65 0 100 -29q37 -30 37 -88z" />
    <glyph glyph-name="j" unicode="j" horiz-adv-x="739" 
d="M119 -444v1480h502v-1480h-502zM518 1296q0 -57 -37 -88q-36 -30 -100 -30t-100 30q-37 31 -37 88q0 58 37 88q33 29 100 29t100 -29q37 -30 37 -88z" />
    <glyph glyph-name="k" unicode="k" horiz-adv-x="1395" 
d="M109 0v1550h497v-911l211 395h588l-367 -497l387 -537h-594l-225 387v-387h-497z" />
    <glyph glyph-name="l" unicode="l" horiz-adv-x="739" 
d="M119 0v1550h502v-1550h-502z" />
    <glyph glyph-name="m" unicode="m" horiz-adv-x="1952" 
d="M109 0v1034h479v-145q57 89 131 135q70 43 162 43q108 0 182 -53q71 -53 117 -166q58 108 145 164q82 55 191 55q152 0 243 -100q90 -102 90 -271v-696h-485v520q0 80 -14 107q-17 28 -50 28q-42 0 -59 -32q-20 -33 -20 -103v-520h-480v520q0 78 -12 107q-16 28 -51 28
q-41 0 -60.5 -32.5t-19.5 -102.5v-520h-489z" />
    <glyph glyph-name="n" unicode="n" horiz-adv-x="1376" 
d="M109 0v1034h487v-143q64 88 143 133q80 43 179 43q166 0 262 -100q96 -104 96 -273v-694h-502v522q0 73 -16 107q-16 28 -56 28q-45 0 -67 -34q-23 -38 -23 -101v-522h-503z" />
    <glyph glyph-name="o" unicode="o" horiz-adv-x="1331" 
d="M666 373q55 0 88 39q34 40 34 102q0 64 -32 102q-33 39 -90 39q-56 0 -88 -39q-35 -40 -35 -102t35 -102q32 -39 88 -39zM1270 514q0 -114 -49 -223q-52 -107 -144 -187q-79 -67 -184 -106q-107 -37 -227 -37q-122 0 -226 37q-101 33 -186 106q-93 79 -141 187
q-52 105 -52 223q0 120 52 225q23 53 57 97t84 88q85 73 186 106q104 37 226 37q120 0 226.5 -37t186.5 -106q90 -78 142 -185q49 -109 49 -225z" />
    <glyph glyph-name="p" unicode="p" horiz-adv-x="1389" 
d="M717 365q57 0 94 43q35 40 35 108q0 67 -35 111q-39 41 -94 41q-57 0 -92 -41q-37 -43 -37 -111q0 -70 37 -108q33 -43 92 -43zM109 -446v1480h479v-137q65 86 145 127q79 43 176 43q188 0 301 -152q115 -154 115 -407q0 -243 -117 -393q-120 -152 -299 -152
q-101 0 -178 45q-78 43 -141 133q4 -27 8 -82q4 -60 4 -98v-407h-493z" />
    <glyph glyph-name="q" unicode="q" horiz-adv-x="1389" 
d="M549 516q0 -70 37 -108q33 -43 92 -43q58 0 94 43q35 40 35 108q0 67 -35 111q-38 41 -94 41q-57 0 -92 -41q-37 -43 -37 -111zM1286 -446h-493v407q0 49 4 107q3 45 6 73q-63 -90 -141 -133q-75 -45 -177 -45q-89 0 -164.5 38.5t-134.5 115.5q-118 147 -118 391
q0 255 114 405q117 154 303 154q97 0 174 -41q79 -44 146 -129v137h481v-1480z" />
    <glyph glyph-name="r" unicode="r" horiz-adv-x="999" 
d="M109 0v1034h487v-145q64 87 145 135q80 43 177 43h22q10 0 14 -2v-502q-41 22 -77 35q-38 10 -64 10q-96 0 -147 -53q-54 -54 -54 -145v-410h-503z" />
    <glyph glyph-name="s" unicode="s" horiz-adv-x="999" 
d="M0 74l133 319q80 -54 152 -86q73 -28 118 -28q40 0 62 16q20 14 20 43q0 39 -90 57q-27 6 -47 11q-144 33 -211 106q-67 70 -67 186q0 163 137 267q137 102 352 102q112 0 209 -20q100 -23 186 -62l-123 -311q-75 50 -126 71q-57 23 -97 23q-35 0 -55 -14
q-21 -16 -21 -39q0 -38 117 -64q10 -2 25 -5.5t20 -4.5q152 -38 221 -104q72 -72 72 -183q0 -175 -139 -282q-141 -111 -371 -111q-124 0 -246 29q-110 25 -231 84z" />
    <glyph glyph-name="t" unicode="t" horiz-adv-x="856" 
d="M176 0v653h-141v381h141v342h502v-342h143v-381h-143v-653h-502z" />
    <glyph glyph-name="u" unicode="u" horiz-adv-x="1339" 
d="M94 1034h494v-506q0 -106 18 -141q15 -31 64 -31q44 0 63 29q17 36 17 143v506h493v-557q0 -269 -137 -391q-137 -125 -436 -125t-437.5 124.5t-138.5 391.5v557z" />
    <glyph glyph-name="v" unicode="v" horiz-adv-x="1229" 
d="M385 0l-444 1034h532l102 -358q18 -55 25 -92q9 -34 12 -64q2 32 29 131q3 7 4.5 13t3.5 12l101 358h538l-448 -1034h-455z" />
    <glyph glyph-name="w" unicode="w" horiz-adv-x="1782" 
d="M356 0l-405 1034h530l88 -395q10 -45 15 -84q8 -61 10 -96q14 88 16 100q3 15 7 31.5t12 48.5l106 395h330l96 -407q3 -12 7 -32l8 -40q7 -33 14 -96q3 26 16 102q9 51 21 98l94 375h530l-444 -1034h-395l-88 326q-3 7 -6 20q-21 79 -31 137q-6 -51 -27 -129l-8 -28
l-88 -326h-408z" />
    <glyph glyph-name="x" unicode="x" horiz-adv-x="1284" 
d="M-66 0l416 535l-385 499h563l68 -151q6 -14 11 -25t11 -27q10 -22 13 -47q5 28 28 78q2 3 4 8.5t3 8t2 4.5l67 151h568l-369 -499l422 -535h-596l-82 152q-8 15 -21 49q-12 32 -16 51q-7 -38 -14 -55q-8 -22 -21 -45l-86 -152h-586z" />
    <glyph glyph-name="y" unicode="y" horiz-adv-x="1300" 
d="M410 90l-449 944h551l78 -264q2 -2 2.5 -4.5t1.5 -5.5q55 -195 63 -281q9 40 17 72.5t16.5 64.5t14.5 56q8 39 26 104l76 258h516l-631 -1456h-534z" />
    <glyph glyph-name="z" unicode="z" horiz-adv-x="1120" 
d="M-2 0l412 647h-344v387h1079l-410 -641h357v-393h-1094z" />
    <glyph glyph-name="braceleft" unicode="{" horiz-adv-x="1024" 
d="M905 1192q-12 0 -22 2h-21q-89 0 -117 -31q-30 -27 -30 -127v-239q0 -131 -47 -189q-46 -55 -170 -78q123 -21 172 -77q45 -55 45 -187v-241q0 -98 30 -125q28 -31 115 -31q12 0 23 2h22v-285h-80q-136 0 -211 11q-73 9 -120 34q-60 29 -84.5 83.5t-24.5 187.5v258
q0 129 -45 180t-160 51q-10 0 -16 -2h-19v283h19q6 -2 16 -2q113 0 160 53q45 51 45 178v258q0 135 25 189q24 55 84 84q50 25 120 34q75 11 211 11h80v-285z" />
    <glyph glyph-name="bar" unicode="|" horiz-adv-x="1024" 
d="M653 1565v-2048h-280v2048h280z" />
    <glyph glyph-name="braceright" unicode="}" horiz-adv-x="1024" 
d="M641 1159v-258q0 -125 47 -178t158 -53q10 0 16 2h19v-283h-19q-6 2 -16 2q-113 0 -158 -51q-47 -53 -47 -180v-258q0 -130 -25 -187q-23 -54 -86 -86q-51 -24 -114 -32q-74 -11 -201 -11h-94v283h22q11 -2 21 -2q89 0 117 31q30 27 30 127v241q0 129 47 187
q49 57 170 77q-123 22 -170 76q-47 58 -47 189v241q0 100 -30 127q-28 31 -117 31h-21q-10 -2 -22 -2v285h80q137 0 211 -11q71 -9 118 -34q62 -32 86 -86q25 -57 25 -187z" />
    <glyph glyph-name="asciitilde" unicode="~" horiz-adv-x="1706" 
d="M1530 543q-98 -68 -193 -101q-86 -32 -178 -32q-53 0 -110 12q-57 9 -156 45q-125 43 -195 55q-70 15 -137 15q-82 0 -176 -37q-102 -45 -207 -121v299q116 74 217 108q97 35 191 35q58 0 123 -12q53 -10 155 -41q22 -6 64 -23q156 -53 235 -53q83 0 174 37
q95 40 193 113v-299z" />
    <glyph glyph-name="Zcaron" horiz-adv-x="1380" 
d="M-53 0l655 1028h-512v436h1350l-637 -1013h565v-451h-1421zM500 1847l145 -262h219l146 262h-123l-131 -127l-133 127h-123z" />
    <glyph glyph-name="ogonek" 
 />
    <glyph glyph-name="caron" horiz-adv-x="2" 
d="M-20 881l145 -263h219l145 263h-122l-131 -127l-134 127h-122z" />
    <glyph glyph-name="Lslash" horiz-adv-x="1233" 
d="M170 0v459l-113 -72l-153 258l266 178v641h526v-354l187 127l178 -254l-365 -246v-280h514v-457h-1040z" />
    <glyph glyph-name="ordmasculine" horiz-adv-x="999" 
d="M500 1001q40 0 67 27q25 28 25 74q0 44 -25 72q-26 26 -67 26t-68 -26q-24 -28 -24 -72q0 -45 24 -74q28 -27 68 -27zM952 1102q0 -83 -37 -158q-36 -74 -106 -129q-59 -47 -139 -74q-78 -26 -170 -26q-91 0 -168 24q-84 31 -142 76q-66 51 -104 129q-39 74 -39 158
t37 158q39 76 106 129q64 47 142 75q75 25 168 25q91 0 170 -25q78 -28 139 -75q67 -55 106 -129q37 -77 37 -158z" />
    <glyph glyph-name="fraction" horiz-adv-x="342" 
d="M-342 -39l813 1518h211l-817 -1518h-207z" />
    <glyph glyph-name="breve" horiz-adv-x="1024" 
d="M197 1507h131q6 -72 50.5 -104.5t133.5 -32.5q88 0 135 35q44 33 47 102h131q-12 -160 -88.5 -233.5t-224.5 -73.5q-151 0 -227 76q-79 78 -88 231z" />
    <glyph glyph-name="dotlessi" horiz-adv-x="739" 
d="M119 0v1034h502v-1034h-502z" />
    <glyph glyph-name="dotlessi" unicode="&#x131;" horiz-adv-x="739" 
d="M119 0v1034h502v-1034h-502z" />
    <glyph glyph-name="zcaron" horiz-adv-x="1120" 
d="M-2 0l412 647h-344v387h1079l-410 -641h357v-393h-1094zM338 1415l145 -262h219l146 262h-123l-131 -127l-133 127h-123z" />
    <glyph glyph-name="Ydieresis" horiz-adv-x="1305" 
d="M375 0v647l-490 817h600l123 -284q26 -64 39 -111q2 -4 2.5 -6t1.5 -4q8 30 37 102q4 8 5.5 12.5t2.5 6.5l121 284h596l-508 -817v-647h-530zM692 1722h-2q0 52 39 90q39 39 92 39q56 0 92 -36q37 -37 37 -93t-35 -94q-38 -35 -92 -35q-52 0 -94 37q-37 39 -37 92z
M340 1722h-2q0 52 39 90q38 39 92 39q56 0 92 -36q37 -37 37 -93t-35 -94q-35 -35 -92 -35q-55 0 -92 37q-39 36 -39 92z" />
    <glyph glyph-name="Ydieresis" unicode="&#x178;" horiz-adv-x="1305" 
d="M375 0v647l-490 817h600l123 -284q26 -64 39 -111q2 -4 2.5 -6t1.5 -4q8 30 37 102q4 8 5.5 12.5t2.5 6.5l121 284h596l-508 -817v-647h-530zM692 1722h-2q0 52 39 90q39 39 92 39q56 0 92 -36q37 -37 37 -93t-35 -94q-38 -35 -92 -35q-52 0 -94 37q-37 39 -37 92z
M340 1722h-2q0 52 39 90q38 39 92 39q56 0 92 -36q37 -37 37 -93t-35 -94q-35 -35 -92 -35q-55 0 -92 37q-39 36 -39 92z" />
    <glyph glyph-name="fl" unicode="&#xa0;" horiz-adv-x="1612" 
d="M991 0v1550h502v-1550h-502zM176 0v653h-135v381h135v117q0 215 115 330q116 114 330 114q56 0 112 -6q53 -6 113 -18v-389q1 0 -23 4q-48 4 -49 4q-51 0 -74 -29q-22 -28 -22 -96v-31h168v-381h-168v-653h-502z" />
    <glyph glyph-name="exclamdown" unicode="&#xa1;" horiz-adv-x="768" 
d="M135 926h496v-965h-496v965zM100 1278q0 102 82 172q83 70 201 70q120 0 203 -70q82 -73 82 -172q0 -98 -82 -168q-86 -72 -203 -72q-115 0 -201 72q-82 70 -82 168z" />
    <glyph glyph-name="cent" unicode="&#xa2;" horiz-adv-x="1403" 
d="M1065 713q-45 36 -82 53q-46 16 -88 16q-74 0 -121 -41q-45 -38 -45 -106q0 -65 43 -105q49 -41 115 -41q43 0 90 21q40 16 88 57l-8 -415q-32 -18 -82 -31q-70 -23 -123 -33v-123h-227v135q-188 56 -295 196.5t-107 338.5q0 197 113 346q58 75 131 122t166 68v121h229
v-110q36 -3 90 -17q58 -13 113 -32v-420z" />
    <glyph glyph-name="sterling" unicode="&#xa3;" horiz-adv-x="1403" 
d="M750 555q0 -4 2 -8v-12q0 -42 -25 -80q-26 -36 -82 -74v-14q40 13 55 16q38 4 58 4q67 0 157 -29.5t119 -29.5q53 0 86 24q36 27 64 78l241 -233q-37 -60 -82 -104t-98 -75q-100 -57 -235 -57q-121 0 -254 43t-146 43q3 0 -39 10q-36 9 -73 9q-50 0 -97 -21
q-40 -20 -88 -68l-188 306q34 47 72 71q35 25 79 31q21 22 31 49q10 32 10 55q0 12 -10 60q-2 2 -2 6h-201v305h127q-25 61 -38 119q-15 48 -15 100q0 183 154 291q154 109 418 109q276 0 421 -121q146 -123 152 -361h-471q-3 62 -31 93q-28 28 -84 28q-48 0 -80 -24
q-30 -28 -30 -68q0 -28 47 -145q7 -18 8 -21h399v-305h-331z" />
    <glyph glyph-name="currency" unicode="&#xa4;" horiz-adv-x="1241" 
d="M866 885q0 98 -71 172q-76 71 -172 71q-101 0 -172 -71q-74 -73 -74 -172q0 -102 74 -172q72 -72 172 -72q101 0 172 74q71 71 71 170zM385 1253q55 36 111 52q62 16 127 16t127 -16q57 -17 108 -52l199 199l133 -135l-197 -203q33 -51 49 -110q17 -60 17 -119t-17 -119
q-15 -60 -49 -111l197 -200l-133 -138l-199 201q-60 -38 -110 -51q-58 -18 -125 -18q-66 0 -125 18q-54 14 -113 51l-199 -201l-133 138l197 200q-35 53 -49 109q-17 60 -17 123q0 62 17 119q15 56 49 108l-197 203l133 135z" />
    <glyph glyph-name="yen" unicode="&#xa5;" horiz-adv-x="1204" 
d="M137 0v1464h979v-397h-463v-141h420v-375h-420v-154h475v-397h-991zM362 1536l146 262h219l145 -262h-122l-132 127l-133 -127h-123z" />
    <glyph glyph-name="brokenbar" unicode="&#xa6;" horiz-adv-x="1024" 
d="M653 408v-758h-280v758h280zM653 1432v-758h-280v758h280z" />
    <glyph glyph-name="section" unicode="&#xa7;" horiz-adv-x="1327" 
d="M647 403q60 0 101 39q36 40 36 103t-36 102q-39 39 -101 39q-63 0 -98 -39q-39 -38 -39 -102t39 -103q36 -39 98 -39zM311 856q-82 34 -125 98q-41 68 -41 156q0 177 144 285q145 104 391 104q255 0 389 -108q130 -109 133 -326h-397v14q0 58 -33 84q-34 29 -96 29
q-60 0 -94 -29q-37 -27 -37 -78q0 -87 186 -108q22 -3 41.5 -6t28.5 -4q146 -25 192 -39q66 -25 103 -51q78 -56 116 -136q39 -79 39 -182q0 -122 -59 -207q-62 -84 -176 -121q85 -34 124.5 -98t39.5 -162q0 -181 -144 -280q-144 -105 -393 -105q-248 0 -383 111
q-134 113 -137 315h401v-18q0 -59 33 -86q34 -31 96 -31q60 0 97 31q36 27 36 76q0 83 -196 116q-50 11 -66 13q-121 22 -207.5 58t-140.5 85q-100 94 -100 274q0 122 59 205q60 82 176 121z" />
    <glyph glyph-name="dieresis" unicode="&#xa8;" horiz-adv-x="1024" 
d="M557 1356q0 57 45 102t105 45q61 0 104 -43q43 -42 43 -104q0 -65 -41 -109q-46 -41 -106 -41q-59 0 -107 43q-43 43 -43 107zM168 1356q0 57 45 102t104 45q62 0 105 -43q43 -42 43 -104q0 -65 -41 -109q-43 -41 -107 -41q-59 0 -104 42.5t-45 107.5z" />
    <glyph glyph-name="copyright" unicode="&#xa9;" horiz-adv-x="1706" 
d="M987 883q-3 62 -39 98q-33 37 -92 37q-74 0 -115 -72q-41 -74 -41 -201q0 -128 41 -196q41 -66 123 -66q58 0 92 37q32 35 35 107h248q-6 -147 -109 -238q-103 -88 -272 -88q-194 0 -305 117q-113 113 -113 319q0 201 111 324t289 123q86 0 158 -20t120 -58
q102 -83 111 -223h-242zM1452 743q0 123 -45 230q-49 112 -129 192q-83 84 -195 131q-103 45 -229 45q-124 0 -229 -43q-109 -45 -191 -129q-87 -90 -133 -196q-45 -107 -45 -230q0 -122 45 -227q48 -111 130.5 -194t195.5 -132q106 -45 227 -45q119 0 229 45
q108 46 197 134q86 83 129 190t43 229zM852 1493q156 0 293 -55q139 -59 244 -164q101 -102 161 -244q56 -139 56 -289q0 -152 -56 -288.5t-161 -237.5q-109 -106 -250 -166q-139 -59 -287 -59q-153 0 -285 57q-138 60 -243 166q-110 110 -164 244q-58 134 -58 284
q0 152 58 289t166 248q99 103 237 160q134 55 289 55z" />
    <glyph glyph-name="ordfeminine" unicode="&#xaa;" horiz-adv-x="1042" 
d="M412 1106q0 -49 26 -76q31 -29 70 -29q41 0 72 29q26 27 26 76t-26 76q-30 28 -72 28q-40 0 -70 -28q-26 -27 -26 -76zM618 741v109q-52 -67 -116 -102q-62 -33 -137 -33q-67 0 -124 26.5t-102 79.5q-88 107 -88 277q0 177 86 284t228 107q71 0 131 -29q56 -29 108 -90
v96h361v-725h-347z" />
    <glyph glyph-name="guillemotleft" unicode="&#xab;" horiz-adv-x="1735" 
d="M868 453q111 0 179 75q67 77 67 201q0 127 -67 203q-69 76 -179 76t-180 -76q-67 -76 -67 -203q0 -124 67 -201q69 -75 180 -75zM1651 729q0 -162 -58 -299q-60 -142 -166 -248q-108 -105 -253 -164q-145 -57 -306 -57q-163 0 -307 57q-140 57 -254 166
q-110 111 -166 244q-55 137 -55 301t55 301q58 136 166 246q110 107 252 166q143 55 309 55q164 0 308 -55q143 -58 254 -166q106 -108 165 -246q56 -139 56 -301zM596 1548l145 262h220l145 -262h-123l-131 127l-133 -127h-123z" />
    <glyph glyph-name="logicalnot" unicode="&#xac;" horiz-adv-x="1706" 
d="M1452 868v-501h-272v235h-926v266h1198z" />
    <glyph glyph-name="minus" unicode="&#xad;" horiz-adv-x="1706" 
d="M1452 750v-277h-1198v277h1198z" />
    <glyph glyph-name="registered" unicode="&#xae;" horiz-adv-x="1706" 
d="M823 1006h-39v-193h54q60 0 88 25q30 24 30 73q0 52 -32 72q-34 23 -101 23zM862 1165q175 0 266 -61.5t91 -177.5q0 -77 -43 -135q-42 -56 -121 -84l178 -355h-279l-145 312h-25v-312h-256v813h334zM1452 743q0 123 -45 230q-49 112 -129 192q-83 84 -195 131
q-103 45 -229 45q-124 0 -229 -43q-109 -45 -191 -129q-87 -90 -133 -196q-45 -107 -45 -230q0 -122 45 -227q48 -111 130.5 -194t195.5 -132q106 -45 227 -45q119 0 229 45q108 46 197 134q86 83 129 190t43 229zM852 1493q156 0 293 -55q139 -59 244 -164
q101 -102 161 -244q56 -139 56 -289q0 -152 -56 -288.5t-161 -237.5q-109 -106 -250 -166q-139 -59 -287 -59q-153 0 -285 57q-138 60 -243 166q-110 110 -164 244q-58 134 -58 284q0 152 58 289t166 248q99 103 237 160q134 55 289 55z" />
    <glyph glyph-name="macron" unicode="&#xaf;" horiz-adv-x="1024" 
d="M205 1272v182h614v-182h-614z" />
    <glyph glyph-name="ring" unicode="&#xb0;" horiz-adv-x="1024" 
d="M397 1423q0 -47 33 -82q33 -32 82 -32q46 0 82 34q33 34 33 80q0 49 -33 82t-82 33t-82 -33t-33 -82zM242 1423q0 113 77 193q80 78 193 78t192.5 -78.5t79.5 -192.5q0 -113 -79 -192q-78 -80 -193 -80t-193 80q-77 77 -77 192z" />
    <glyph glyph-name="plusminus" unicode="&#xb1;" horiz-adv-x="1735" 
d="M868 453q111 0 179 75q67 77 67 201q0 127 -67 203q-69 76 -179 76t-180 -76q-67 -76 -67 -203q0 -124 67 -201q69 -75 180 -75zM1651 729v2q0 -162 -58 -299q-60 -142 -166 -248q-108 -105 -253 -164q-145 -57 -306 -57q-163 0 -307 57q-140 57 -254 166
q-110 111 -166 244q-55 137 -55 301t55 301q58 136 166 246q110 107 252 166q143 55 309 55q164 0 308 -55q143 -58 254 -166q57 -52 94 -115q42 4 62 44t26 107.5t6 176.5h160q0 -159 -22 -247.5t-66.5 -127.5t-116.5 -47q78 -152 78 -340z" />
    <glyph glyph-name="twosuperior" unicode="&#xb2;" horiz-adv-x="926" 
d="M23 575l430 467q28 32 45 60q10 20 10 39q0 23 -16 41q-15 14 -43 14q-34 0 -50 -25q-14 -22 -14 -77h-322v10q0 169 105 264q103 94 289 94q180 0 284 -88q107 -88 107 -231q0 -77 -37 -135q-42 -67 -127 -129l-82 -62h244v-242h-823z" />
    <glyph glyph-name="threesuperior" unicode="&#xb3;" horiz-adv-x="926" 
d="M418 1120h14q48 0 68 15q22 16 22 45q0 22 -14 36.5t-41 14.5q-25 0 -37 -17q-14 -14 -14 -45h-318q3 143 99 217q92 76 278 76q167 0 264 -67q99 -67 99 -178q0 -67 -33 -111q-35 -44 -105 -66q88 -18 129 -69q45 -51 45 -135q0 -128 -108 -205q-110 -78 -291 -78
q-197 0 -307 88q-113 88 -113 244v2h332q3 -45 21 -68q19 -22 53 -22q35 0 55 20q21 18 21 51t-25 56q-24 18 -70 18h-24v178z" />
    <glyph glyph-name="acute" unicode="&#xb4;" horiz-adv-x="1024" 
d="M809 1522l-311 -351h-166l180 351h297z" />
    <glyph glyph-name="mu" unicode="&#xb5;" horiz-adv-x="1372" 
d="M602 1087l-84 -614q-1 -5 -1.5 -12t-1 -13t-1.5 -8v-20q0 -68 33 -101q29 -32 94 -32q78 0 125 53q44 49 59 160l84 587h418l-158 -1087h-368l18 131q-36 -67 -82 -100q-46 -35 -106 -35q-63 0 -105 33q-43 29 -71 92l-72 -543h-412l209 1509h422z" />
    <glyph glyph-name="paragraph" unicode="&#xb6;" horiz-adv-x="1024" 
d="M1014 1337h-101v-1337h-202v1337h-140v-1337h-202v784q-166 11 -260 103q-99 94 -99 243q0 158 107 252q108 97 282 97h615v-142z" />
    <glyph glyph-name="periodcentered" unicode="&#xb7;" horiz-adv-x="1602" 
d="M121 670v792h526v-798q0 -141 33 -191q33 -53 113 -53q79 0 112 53q35 56 35 191v798h526v-327q52 21 71 96.5t19 226.5h160q-6 -161 -35 -248t-80.5 -124t-134.5 -50v-366q0 -160 -20 -256q-22 -106 -66 -170q-89 -138 -239 -209q-156 -74 -348 -74q-193 0 -349 74
q-150 71 -239 209q-41 64 -64 168q-20 96 -20 258z" />
    <glyph glyph-name="periodcentered" unicode="&#x2219;" horiz-adv-x="1602" 
d="M121 670v792h526v-798q0 -141 33 -191q33 -53 113 -53q79 0 112 53q35 56 35 191v798h526v-327q52 21 71 96.5t19 226.5h160q-6 -161 -35 -248t-80.5 -124t-134.5 -50v-366q0 -160 -20 -256q-22 -106 -66 -170q-89 -138 -239 -209q-156 -74 -348 -74q-193 0 -349 74
q-150 71 -239 209q-41 64 -64 168q-20 96 -20 258z" />
    <glyph glyph-name="cedilla" unicode="&#xb8;" horiz-adv-x="1024" 
d="M238 -440v141q76 -21 147 -33q75 -10 115 -10t59 16q21 19 21 52q0 28 -25 45q-25 14 -92 14h-25q-10 -2 -26 -2v217h123v-84h18q112 0 170 -49q59 -50 59 -143q0 -101 -65 -154q-67 -55 -189 -55q-62 0 -133 12q-65 8 -157 33z" />
    <glyph glyph-name="onesuperior" unicode="&#xb9;" horiz-adv-x="926" 
d="M330 1180h-144v266h492v-871h-348v605z" />
    <glyph glyph-name="degree" unicode="&#xba;" horiz-adv-x="674" 
d="M489 1151q0 62 -45 106q-45 46 -108 46q-59 0 -107 -43q-43 -48 -43 -109t43 -109q46 -45 109 -45q61 0 106 45t45 109zM338 1473q133 0 227 -95q94 -93 94 -229q0 -134 -94 -227q-94 -95 -229 -95q-133 0 -227 95q-95 91 -95 227q0 134 97 229q94 95 227 95z" />
    <glyph glyph-name="guillemotright" unicode="&#xbb;" horiz-adv-x="1063" 
d="M698 80l-190 133l215 301l-217 301l192 133l297 -434zM260 80l-192 133l217 301l-219 301l194 133l297 -434z" />
    <glyph glyph-name="onequarter" unicode="&#xbc;" horiz-adv-x="2109" 
d="M1665 0v164h-395v213l346 442h364v-442h99v-213h-99v-164h-315zM1556 377h134v112q0 48 2 60t2.5 18t1.5 13q-10 -20 -27 -50q-12 -20 -37 -51zM543 -39l813 1518h211l-817 -1518h-207zM315 1196h-139v248h471v-811h-332v563z" />
    <glyph glyph-name="onehalf" unicode="&#xbd;" horiz-adv-x="1389" 
d="M678 664q-57 0 -92 -41q-37 -40 -37 -109q0 -68 37 -111q34 -43 92 -43t92 43q37 43 37 111t-35 109q-38 41 -94 41zM1286 1550v-207h135v-110h-135v-1237h-469v151q-67 -98 -147 -143q-85 -47 -187 -47q-186 0 -303 154q-114 150 -114 405q0 119 30 219.5t88 173.5
q117 152 299 152q100 0 176 -43q80 -46 142 -135q-3 30 -6 75q-4 58 -4 107v172h-379v111h379l2 202h493z" />
    <glyph glyph-name="threequarters" unicode="&#xbe;" horiz-adv-x="2109" 
d="M1665 0v164h-395v213l346 442h364v-442h99v-213h-99v-164h-315zM1556 377h134v112q0 48 2 60t2.5 18t1.5 13q-10 -20 -27 -50q-12 -20 -37 -51zM543 -39l813 1518h211l-817 -1518h-207zM399 1141h15q43 0 63 14q21 14 21 43q0 21 -15 35q-15 12 -37 12q-25 0 -36 -14
q-13 -14 -13 -43h-305q3 134 96 203q91 69 267 69q158 0 252 -63.5t94 -165.5q0 -64 -33 -103q-36 -41 -100 -61q80 -14 125 -66q43 -49 43 -127q0 -118 -105 -192q-103 -72 -278 -72q-92 0 -165.5 20.5t-127.5 61.5q-107 83 -107 230v2h318q0 -39 18 -62q16 -22 51 -22
q29 0 52 18q20 17 20 47q0 33 -23 51q-20 19 -67 19h-23v166z" />
    <glyph glyph-name="questiondown" unicode="&#xbf;" horiz-adv-x="1247" 
d="M969 1286q0 -97 -82 -164q-82 -69 -203 -69t-203 69q-82 70 -82 164q0 97 82 164q85 68 203 68t203 -68q82 -67 82 -164zM844 965v-379q-47 14 -64 16q-36 4 -47 4q-76 0 -115 -39q-43 -37 -43 -102q0 -47 23 -78q24 -27 66 -27q44 0 67 29q22 33 25 92h504
q-6 -79 -27 -147.5t-59.5 -127.5t-90.5 -104q-159 -141 -417 -141q-262 0 -422 150q-56 51 -91.5 110t-53 127.5t-17.5 147.5q0 218 160 350q157 133 417 133q56 0 86 -2q46 -3 99 -12z" />
    <glyph glyph-name="Agrave" unicode="&#xc0;" horiz-adv-x="1507" 
d="M641 532h219l-45 166q-34 129 -45 195q-11 59 -14 127h-11q-3 -68 -14 -127q-14 -81 -45 -195zM-57 0l522 1464h586l512 -1464h-566l-47 184h-397l-45 -184h-565zM526 1829h222l135 -262h-123z" />
    <glyph glyph-name="Aacute" unicode="&#xc1;" horiz-adv-x="1507" 
d="M641 532h219l-45 166q-34 129 -45 195q-11 59 -14 127h-11q-3 -68 -14 -127q-14 -81 -45 -195zM-57 0l522 1464h586l512 -1464h-566l-47 184h-397l-45 -184h-565zM1018 1829l-234 -262h-122l135 262h221z" />
    <glyph glyph-name="Acircumflex" unicode="&#xc2;" horiz-adv-x="1507" 
d="M641 532h219l-45 166q-34 129 -45 195q-11 59 -14 127h-11q-3 -68 -14 -127q-14 -81 -45 -195zM-57 0l522 1464h586l512 -1464h-566l-47 184h-397l-45 -184h-565zM485 1526l146 262h219l145 -262h-123l-131 127l-133 -127h-123z" />
    <glyph glyph-name="Atilde" unicode="&#xc3;" horiz-adv-x="1507" 
d="M641 532h219l-45 166q-34 129 -45 195q-11 59 -14 127h-11q-3 -68 -14 -127q-14 -81 -45 -195zM-57 0l522 1464h586l512 -1464h-566l-47 184h-397l-45 -184h-565zM1001 1786h-2q-22 -102 -57.5 -146.5t-99.5 -44.5h-25q-6 0 -26 4l-68 19q-10 2 -27 2h-18q-24 0 -39 -12
q-14 -13 -25 -41h-88q20 92 56 137q36 43 98 43h31q10 0 34 -4l70 -19h19h18q22 0 39 17t22 45h88z" />
    <glyph glyph-name="Adieresis" unicode="&#xc4;" horiz-adv-x="1507" 
d="M641 532h219l-45 166q-34 129 -45 195q-11 59 -14 127h-11q-3 -68 -14 -127q-14 -81 -45 -195zM-57 0l522 1464h586l512 -1464h-566l-47 184h-397l-45 -184h-565zM772 1720h-2q0 52 39 90q39 39 92 39q56 0 92 -37q37 -36 37 -92t-35 -94q-38 -35 -92 -35q-52 0 -94 37
q-37 37 -37 92zM420 1720h-2q0 52 39 90q38 39 92 39q55 0 92 -37q37 -36 37 -92t-35 -94q-35 -35 -92 -35q-55 0 -92 37q-39 36 -39 92z" />
    <glyph glyph-name="Aring" unicode="&#xc5;" horiz-adv-x="1507" 
d="M641 532h219l-45 166q-34 129 -45 195q-11 59 -14 127h-11q-3 -68 -14 -127q-14 -81 -45 -195zM-57 0l522 1464h586l512 -1464h-566l-47 184h-397l-45 -184h-565zM680 1782h2q0 -37 25 -62q24 -24 61 -24q39 0 63 24q25 25 25 62q0 39 -25 63q-24 25 -63 25t-63 -25
q-25 -24 -25 -63zM559 1782v-2q0 87 62 149t151 62q90 0 152 -62q61 -61 61 -149q0 -89 -61 -150t-152 -61q-90 0 -151 61q-62 62 -62 152z" />
    <glyph glyph-name="AE" unicode="&#xc6;" 
d="M-492 2079l-233 -262h-123l135 262h221z" />
    <glyph glyph-name="Ccedilla" unicode="&#xc7;" horiz-adv-x="1309" 
d="M1214 883q-68 68 -147 102q-78 35 -158 35q-129 0 -207 -80q-79 -79 -79 -211t75 -207.5t201 -75.5q75 0 156 33q84 38 170 103l-17 -551q-92 -37 -172 -51q-83 -19 -172 -19q-107 0 -207 25q-96 21 -178 67q-195 115 -293 283q-100 172 -100 393q0 169 57 303
q54 136 164 248q109 109 252 164t311 55q87 0 177 -18q88 -20 167 -56v-542zM559 -418l-12 125q59 -16 129 -26q55 -7 100 -7q37 0 51 13q17 13 17 43q0 26 -21 39q-20 10 -80 10h-18h-20v194h110v-73h16q98 0 151.5 -43.5t53.5 -124.5q0 -90 -55 -135q-59 -50 -166 -50
q-64 0 -117 9q-53 5 -139 26z" />
    <glyph glyph-name="Egrave" unicode="&#xc8;" horiz-adv-x="1204" 
d="M137 0v1464h979v-397h-463v-141h420v-375h-420v-154h475v-397h-991zM375 1829h221l135 -262h-123z" />
    <glyph glyph-name="Eacute" unicode="&#xc9;" horiz-adv-x="1204" 
d="M137 0v1464h979v-397h-463v-141h420v-375h-420v-154h475v-397h-991zM907 1839l-233 -262h-123l135 262h221z" />
    <glyph glyph-name="Ecircumflex" unicode="&#xca;" horiz-adv-x="1204" 
d="M137 0v1464h979v-397h-463v-141h420v-375h-420v-154h475v-397h-991zM362 1536l146 262h219l145 -262h-122l-132 127l-133 -127h-123z" />
    <glyph glyph-name="Edieresis" unicode="&#xcb;" horiz-adv-x="1204" 
d="M137 0v1464h979v-397h-463v-141h420v-375h-420v-154h475v-397h-991zM690 1720h-2q0 52 39 90q39 39 92 39q56 0 92 -37q37 -36 37 -92t-35 -94q-38 -35 -92 -35q-52 0 -94 37q-37 37 -37 92zM338 1720h-2q0 52 39 90q38 39 92 39q56 0 92 -37q37 -36 37 -92t-35 -94
q-35 -35 -92 -35q-55 0 -92 37q-39 36 -39 92z" />
    <glyph glyph-name="Igrave" unicode="&#xcc;" horiz-adv-x="829" 
d="M147 0v1464h535v-1464h-535zM197 1839h221l135 -262h-123z" />
    <glyph glyph-name="Iacute" unicode="&#xcd;" horiz-adv-x="829" 
d="M147 0v1464h535v-1464h-535zM596 1860l-234 -263h-122l135 263h221z" />
    <glyph glyph-name="Icircumflex" unicode="&#xce;" horiz-adv-x="829" 
d="M147 0v1464h535v-1464h-535zM158 1567l145 262h219l146 -262h-123l-131 127l-133 -127h-123z" />
    <glyph glyph-name="Idieresis" unicode="&#xcf;" horiz-adv-x="829" 
d="M147 0v1464h535v-1464h-535zM475 1720h-2q0 52 39 90q39 39 92 39q56 0 92 -37q37 -36 37 -92t-35 -94q-38 -35 -92 -35q-52 0 -94 37q-37 37 -37 92zM123 1720h-2q0 52 39 90q38 39 92 39q55 0 92 -37q37 -36 37 -92t-35 -94q-35 -35 -92 -35q-55 0 -92 37
q-39 36 -39 92z" />
    <glyph glyph-name="Eth" unicode="&#xd0;" horiz-adv-x="1647" 
d="M651 408q11 -2 27 -2h33q172 0 264 86q90 84 90 243q0 158 -90 242q-92 82 -266 82h-33q-17 0 -23 -2l-2 -154h209v-319h-209v-176zM166 0v571h-166v344h166v549h426q101 0 182.5 -5t163.5 -17q142 -22 233 -70q94 -48 169.5 -116.5t123.5 -147.5q101 -165 101 -377
q0 -213 -101 -375.5t-293 -263.5q-88 -48 -235 -69q-78 -11 -171.5 -17t-213.5 -6h-385z" />
    <glyph glyph-name="Ntilde" unicode="&#xd1;" horiz-adv-x="1731" 
d="M137 0v1464h516l455 -766q-9 53 -12 113q-4 82 -4 162v491h507v-1464h-520l-450 760q9 -49 12 -105q4 -78 4 -127v-528h-508zM1151 1812h-2q-21 -99 -57 -145q-36 -45 -101 -45h-24q-7 0 -27 4l-68 19q-10 2 -26 2h-19q-21 0 -39 -13q-15 -12 -24 -41h-88q17 89 55 138
q38 43 98 43h31q15 0 35 -5l70 -18h18h18q23 0 39 16q17 17 23 45h88z" />
    <glyph glyph-name="Ograve" unicode="&#xd2;" horiz-adv-x="1735" 
d="M868 453q111 0 179 75q67 77 67 201q0 127 -67 203q-69 76 -179 76t-180 -76q-67 -76 -67 -203q0 -124 67 -201q69 -75 180 -75zM1651 729q0 -162 -58 -299q-60 -142 -166 -248q-108 -105 -253 -164q-145 -57 -306 -57q-163 0 -307 57q-140 57 -254 166
q-110 111 -166 244q-55 137 -55 301t55 301q58 136 166 246q110 107 252 166q143 55 309 55q164 0 308 -55q143 -58 254 -166q106 -108 165 -246q56 -139 56 -301zM641 1862h221l135 -263h-123z" />
    <glyph glyph-name="Oacute" unicode="&#xd3;" horiz-adv-x="1735" 
d="M868 453q111 0 179 75q67 77 67 201q0 127 -67 203q-69 76 -179 76t-180 -76q-67 -76 -67 -203q0 -124 67 -201q69 -75 180 -75zM1651 729q0 -162 -58 -299q-60 -142 -166 -248q-108 -105 -253 -164q-145 -57 -306 -57q-163 0 -307 57q-140 57 -254 166
q-110 111 -166 244q-55 137 -55 301t55 301q58 136 166 246q110 107 252 166q143 55 309 55q164 0 308 -55q143 -58 254 -166q106 -108 165 -246q56 -139 56 -301zM1163 1862l-233 -263h-123l135 263h221z" />
    <glyph glyph-name="Ocircumflex" unicode="&#xd4;" horiz-adv-x="1735" 
d="M868 453q111 0 179 75q67 77 67 201q0 127 -67 203q-69 76 -179 76t-180 -76q-67 -76 -67 -203q0 -124 67 -201q69 -75 180 -75zM1651 729q0 -162 -58 -299q-60 -142 -166 -248q-108 -105 -253 -164q-145 -57 -306 -57q-163 0 -307 57q-140 57 -254 166
q-110 111 -166 244q-55 137 -55 301t55 301q58 136 166 246q110 107 252 166q143 55 309 55q164 0 308 -55q143 -58 254 -166q106 -108 165 -246q56 -139 56 -301zM596 1548l145 262h220l145 -262h-123l-131 127l-133 -127h-123z" />
    <glyph glyph-name="Otilde" unicode="&#xd5;" horiz-adv-x="1735" 
d="M868 453q111 0 179 75q67 77 67 201q0 127 -67 203q-69 76 -179 76t-180 -76q-67 -76 -67 -203q0 -124 67 -201q69 -75 180 -75zM1651 729q0 -162 -58 -299q-60 -142 -166 -248q-108 -105 -253 -164q-145 -57 -306 -57q-163 0 -307 57q-140 57 -254 166
q-110 111 -166 244q-55 137 -55 301t55 301q58 136 166 246q110 107 252 166q143 55 309 55q164 0 308 -55q143 -58 254 -166q106 -108 165 -246q56 -139 56 -301zM1106 1819h-2q-21 -100 -57 -146q-36 -45 -101 -45h-24q-7 0 -27 4l-68 19q-10 2 -26 2h-19q-23 0 -39 -13
q-15 -12 -24 -41h-88q17 89 55 138q38 43 98 43h31q11 0 35 -4l70 -19h18h18q24 0 39 17q17 16 23 45h88z" />
    <glyph glyph-name="Odieresis" unicode="&#xd6;" horiz-adv-x="1735" 
d="M868 453q111 0 179 75q67 77 67 201q0 127 -67 203q-69 76 -179 76t-180 -76q-67 -76 -67 -203q0 -124 67 -201q69 -75 180 -75zM1651 729q0 -162 -58 -299q-60 -142 -166 -248q-108 -105 -253 -164q-145 -57 -306 -57q-163 0 -307 57q-140 57 -254 166
q-110 111 -166 244q-55 137 -55 301t55 301q58 136 166 246q110 107 252 166q143 55 309 55q164 0 308 -55q143 -58 254 -166q106 -108 165 -246q56 -139 56 -301zM893 1733h-2q0 51 39 90t92 39q55 0 92 -37t37 -92q0 -57 -35 -95q-37 -34 -92 -34t-94 36q-37 37 -37 93z
M541 1733h-2q0 51 39 90t92 39t92 -37q37 -39 37 -92q0 -55 -35 -95q-36 -34 -92 -34t-92 36q-39 36 -39 93z" />
    <glyph glyph-name="multiply" unicode="&#xd7;" horiz-adv-x="1389" 
d="M549 520q0 -68 37 -106q33 -41 92 -41q61 0 94 41q35 40 35 106q0 68 -35 109q-38 41 -94 41q-57 0 -92 -41q-37 -40 -37 -109zM823 0v156q-77 -103 -157 -148q-85 -47 -181 -47q-179 0 -299 154q-58 73 -88 173.5t-30 219.5q0 253 116 405q114 154 301 154q97 0 174 -41
q79 -44 146 -129v137h481v-1034h-463zM578 1354l108 2q3 -53 39 -76t104 -23t107 25q35 25 35 76h104q-9 -120 -69 -174q-62 -56 -179 -56q-118 0 -180 56q-63 57 -69 170z" />
    <glyph glyph-name="Oslash" unicode="&#xd8;" horiz-adv-x="1735" 
d="M772 455q19 -7 49 -11q34 -4 53 -4q116 0 193 80q72 84 72 213q0 58 -13 98q-13 46 -36 78zM965 1008q-30 9 -52 12q-18 2 -51 2q-121 0 -192 -80q-74 -77 -74 -209q0 -51 12 -98q8 -39 35 -82zM387 -90l-135 88l100 143q-134 115 -198 262q-68 150 -68 328q0 167 57 301
q54 136 164 248q105 105 250 162q143 55 311 55q96 0 197 -22q97 -24 184 -68l101 141l125 -88l-95 -139q134 -115 203 -260q68 -151 68 -330q0 -164 -58 -301q-59 -139 -166 -246q-104 -104 -251 -164q-145 -55 -308 -55q-97 0 -194 23q-98 21 -185 65z" />
    <glyph glyph-name="Ugrave" unicode="&#xd9;" horiz-adv-x="1602" 
d="M121 670v794h526v-798q0 -141 33 -191q33 -53 113 -53q79 0 112 53q35 56 35 191v798h526v-794q0 -160 -20 -256q-22 -106 -66 -170q-89 -138 -239 -209q-156 -74 -348 -74q-193 0 -349 74q-150 71 -239 209q-41 64 -64 168q-20 96 -20 258zM504 1829h221l135 -262h-123z
" />
    <glyph glyph-name="Uacute" unicode="&#xda;" horiz-adv-x="1602" 
d="M121 670v794h526v-798q0 -141 33 -191q33 -53 113 -53q79 0 112 53q35 56 35 191v798h526v-794q0 -160 -20 -256q-22 -106 -66 -170q-89 -138 -239 -209q-156 -74 -348 -74q-193 0 -349 74q-150 71 -239 209q-41 64 -64 168q-20 96 -20 258zM1087 1829l-233 -262h-123
l135 262h221z" />
    <glyph glyph-name="Ucircumflex" unicode="&#xdb;" horiz-adv-x="1602" 
d="M121 670v794h526v-798q0 -141 33 -191q33 -53 113 -53q79 0 112 53q35 56 35 191v798h526v-794q0 -160 -20 -256q-22 -106 -66 -170q-89 -138 -239 -209q-156 -74 -348 -74q-193 0 -349 74q-150 71 -239 209q-41 64 -64 168q-20 96 -20 258zM551 1587l145 262h219
l146 -262h-123l-131 127l-133 -127h-123z" />
    <glyph glyph-name="Udieresis" unicode="&#xdc;" horiz-adv-x="1602" 
d="M121 670v794h526v-798q0 -141 33 -191q33 -53 113 -53q79 0 112 53q35 56 35 191v798h526v-794q0 -160 -20 -256q-22 -106 -66 -170q-89 -138 -239 -209q-156 -74 -348 -74q-193 0 -349 74q-150 71 -239 209q-41 64 -64 168q-20 96 -20 258zM838 1710h-2q0 52 38 90
q39 39 93 39q55 0 92 -37t37 -92q0 -56 -35 -94q-38 -35 -92 -35q-55 0 -95 37q-36 36 -36 92zM485 1710h-2q0 51 39 90t92 39q56 0 93 -37q36 -36 36 -92q0 -57 -34 -94q-35 -35 -93 -35q-55 0 -92 37q-39 36 -39 92z" />
    <glyph glyph-name="Yacute" unicode="&#xdd;" horiz-adv-x="1305" 
d="M375 0v647l-490 817h600l123 -284q26 -64 39 -111q2 -4 2.5 -6t1.5 -4q8 30 37 102q4 8 5.5 12.5t2.5 6.5l121 284h596l-508 -817v-647h-530zM924 1849l-234 -262h-123l135 262h222z" />
    <glyph glyph-name="Thorn" unicode="&#xde;" horiz-adv-x="1450" 
d="M666 866v-241h82q75 0 114 30q41 32 41 90q0 59 -41 91q-39 30 -114 30h-82zM664 242v-242h-527v1464h527v-188h102q331 0 485 -127q154 -129 154 -408q0 -260 -137 -379q-140 -120 -439 -120h-165z" />
    <glyph glyph-name="germandbls" unicode="&#xdf;" horiz-adv-x="1432" 
d="M117 0v1133q0 230 147 344q73 56 183.5 85t254.5 29q274 0 422 -104q148 -108 148 -303q0 -94 -47 -168q-48 -73 -140 -113q141 -38 222 -145q75 -106 75 -262q0 -249 -155 -371q-156 -125 -469 -125h-53l-7 293h11q80 0 116 49q37 49 37 156q0 132 -35 182
q-33 46 -127 55v291q5 -2 15 -2h18q60 0 86 25q31 24 31 71q0 49 -29 76q-29 29 -78 29q-66 0 -96 -47q-29 -53 -29 -172v-1006h-501z" />
    <glyph glyph-name="agrave" unicode="&#xe0;" horiz-adv-x="1389" 
d="M549 520q0 -68 37 -106q33 -41 92 -41q61 0 94 41q35 40 35 106q0 68 -35 109q-38 41 -94 41q-57 0 -92 -41q-37 -40 -37 -109zM823 0v156q-77 -103 -157 -148q-85 -47 -181 -47q-179 0 -299 154q-58 73 -88 173.5t-30 219.5q0 253 116 405q114 154 301 154q97 0 174 -41
q79 -44 146 -129v137h481v-1034h-463zM571 1432h222l135 -263h-123z" />
    <glyph glyph-name="aacute" unicode="&#xe1;" horiz-adv-x="1389" 
d="M549 520q0 -68 37 -106q33 -41 92 -41q61 0 94 41q35 40 35 106q0 68 -35 109q-38 41 -94 41q-57 0 -92 -41q-37 -40 -37 -109zM823 0v156q-77 -103 -157 -148q-85 -47 -181 -47q-179 0 -299 154q-58 73 -88 173.5t-30 219.5q0 253 116 405q114 154 301 154q97 0 174 -41
q79 -44 146 -129v137h481v-1034h-463zM971 1432l-234 -263h-123l136 263h221z" />
    <glyph glyph-name="acircumflex" unicode="&#xe2;" horiz-adv-x="1389" 
d="M549 520q0 -68 37 -106q33 -41 92 -41q61 0 94 41q35 40 35 106q0 68 -35 109q-38 41 -94 41q-57 0 -92 -41q-37 -40 -37 -109zM823 0v156q-77 -103 -157 -148q-85 -47 -181 -47q-179 0 -299 154q-58 73 -88 173.5t-30 219.5q0 253 116 405q114 154 301 154q97 0 174 -41
q79 -44 146 -129v137h481v-1034h-463zM485 1149l146 262h219l145 -262h-123l-131 127l-133 -127h-123z" />
    <glyph glyph-name="atilde" unicode="&#xe3;" horiz-adv-x="1389" 
d="M549 520q0 -68 37 -106q33 -41 92 -41q61 0 94 41q35 40 35 106q0 68 -35 109q-38 41 -94 41q-57 0 -92 -41q-37 -40 -37 -109zM823 0v156q-77 -103 -157 -148q-85 -47 -181 -47q-179 0 -299 154q-58 73 -88 173.5t-30 219.5q0 253 116 405q114 154 301 154q97 0 174 -41
q79 -44 146 -129v137h481v-1034h-463zM1016 1389h-2q-23 -103 -58 -146q-35 -45 -100 -45h-25q-6 0 -26 4l-68 19q-10 2 -26 2h-19q-23 0 -39 -13q-15 -12 -24 -41h-88q18 92 55 138q38 43 98 43h31q11 0 35 -4l69 -19h19h18q23 0 39 16q18 20 23 46h88z" />
    <glyph glyph-name="adieresis" unicode="&#xe4;" horiz-adv-x="1389" 
d="M549 520q0 -68 37 -106q33 -41 92 -41q61 0 94 41q35 40 35 106q0 68 -35 109q-38 41 -94 41q-57 0 -92 -41q-37 -40 -37 -109zM823 0v156q-77 -103 -157 -148q-85 -47 -181 -47q-179 0 -299 154q-58 73 -88 173.5t-30 219.5q0 253 116 405q114 154 301 154q97 0 174 -41
q79 -44 146 -129v137h481v-1034h-463zM813 1292h-2q0 52 39 90q39 39 92 39q56 0 92 -37q37 -36 37 -92t-35 -94q-38 -35 -92 -35q-52 0 -94 37q-37 37 -37 92zM461 1292h-2q0 52 39 90q38 39 92 39q55 0 92 -37q37 -36 37 -92t-35 -94q-35 -35 -92 -35q-55 0 -92 37
q-39 36 -39 92z" />
    <glyph glyph-name="aring" unicode="&#xe5;" horiz-adv-x="1389" 
d="M549 520q0 -68 37 -106q33 -41 92 -41q61 0 94 41q35 40 35 106q0 68 -35 109q-38 41 -94 41q-57 0 -92 -41q-37 -40 -37 -109zM823 0v156q-77 -103 -157 -148q-85 -47 -181 -47q-179 0 -299 154q-58 73 -88 173.5t-30 219.5q0 253 116 405q114 154 301 154q97 0 174 -41
q79 -44 146 -129v137h481v-1034h-463zM639 1384h2q0 -37 25 -61.5t61 -24.5q37 0 64 25q24 24 24 61q0 40 -24 64q-27 25 -64 25q-38 0 -63 -25q-25 -24 -25 -64zM518 1384v-2q0 88 61.5 149.5t151.5 61.5q91 0 152 -61t61 -150q0 -88 -61.5 -149.5t-151.5 -61.5
q-89 0 -151 62t-62 151z" />
    <glyph glyph-name="ae" unicode="&#xe6;" 
d="M-266 1669l-234 -262h-123l136 262h221z" />
    <glyph glyph-name="ccedilla" unicode="&#xe7;" horiz-adv-x="950" 
d="M891 592q-48 39 -82 53q-46 17 -88 17q-74 0 -121 -39q-45 -39 -45 -109q0 -65 43 -104q47 -41 115 -41q46 0 90 20q41 18 88 57v-411q-71 -35 -150 -55q-72 -19 -143 -19q-118 0 -213 39q-101 41 -174 113q-79 79 -123 182q-41 102 -41 215q0 84 21 154q21 75 61 141
q40 64 90 113t109 81q121 68 270 68q70 0 139 -14q79 -19 154 -43v-418zM328 -422l-13 125q52 -14 129 -27q58 -6 101 -6q37 0 51 13q16 13 16 43q0 27 -20.5 38t-79.5 11h-18h-21v194h111v-73h16q98 0 152 -43q53 -45 53 -125q0 -89 -55 -136q-60 -49 -166 -49
q-62 0 -117 8q-55 6 -139 27z" />
    <glyph glyph-name="egrave" unicode="&#xe8;" horiz-adv-x="1321" 
d="M1272 434h-713v-16q0 -76 29 -117q26 -39 86 -39q36 0 61 21q26 19 41 59l465 -31q-61 -167 -211 -260q-149 -90 -364 -90q-120 0 -224 37q-111 40 -188 106q-94 83 -143 187q-50 108 -50 223q0 120 52 225q23 53 57 97t84 88q85 73 186 106q104 37 226 37q81 0 158 -17
t141 -49q127 -65 219 -194q46 -66 67 -143q23 -80 23 -172v-35q0 -17 -2 -23zM563 659l228 -2q-5 63 -31 91q-28 30 -82 30q-46 0 -78 -30q-28 -33 -37 -89zM440 1432h222l135 -263h-123z" />
    <glyph glyph-name="eacute" unicode="&#xe9;" horiz-adv-x="1321" 
d="M1272 434h-713v-16q0 -76 29 -117q26 -39 86 -39q36 0 61 21q26 19 41 59l465 -31q-61 -167 -211 -260q-149 -90 -364 -90q-120 0 -224 37q-111 40 -188 106q-94 83 -143 187q-50 108 -50 223q0 120 52 225q23 53 57 97t84 88q85 73 186 106q104 37 226 37q81 0 158 -17
t141 -49q127 -65 219 -194q46 -66 67 -143q23 -80 23 -172v-35q0 -17 -2 -23zM563 659l228 -2q-5 63 -31 91q-28 30 -82 30q-46 0 -78 -30q-28 -33 -37 -89zM963 1432l-234 -263h-123l135 263h222z" />
    <glyph glyph-name="ecircumflex" unicode="&#xea;" horiz-adv-x="1321" 
d="M1272 434h-713v-16q0 -76 29 -117q26 -39 86 -39q36 0 61 21q26 19 41 59l465 -31q-61 -167 -211 -260q-149 -90 -364 -90q-120 0 -224 37q-111 40 -188 106q-94 83 -143 187q-50 108 -50 223q0 120 52 225q23 53 57 97t84 88q85 73 186 106q104 37 226 37q81 0 158 -17
t141 -49q127 -65 219 -194q46 -66 67 -143q23 -80 23 -172v-35q0 -17 -2 -23zM563 659l228 -2q-5 63 -31 91q-28 30 -82 30q-46 0 -78 -30q-28 -33 -37 -89zM391 1128l146 263h219l145 -263h-123l-131 127l-133 -127h-123z" />
    <glyph glyph-name="edieresis" unicode="&#xeb;" horiz-adv-x="1321" 
d="M1272 434h-713v-16q0 -76 29 -117q26 -39 86 -39q36 0 61 21q26 19 41 59l465 -31q-61 -167 -211 -260q-149 -90 -364 -90q-120 0 -224 37q-111 40 -188 106q-94 83 -143 187q-50 108 -50 223q0 120 52 225q23 53 57 97t84 88q85 73 186 106q104 37 226 37q81 0 158 -17
t141 -49q127 -65 219 -194q46 -66 67 -143q23 -80 23 -172v-35q0 -17 -2 -23zM563 659l228 -2q-5 63 -31 91q-28 30 -82 30q-46 0 -78 -30q-28 -33 -37 -89zM678 1282h-2q0 52 39 90q38 39 92 39q55 0 92 -37q37 -36 37 -92q0 -57 -35 -94q-37 -35 -92 -35q-56 0 -94 37
q-37 36 -37 92zM326 1282h-2q0 52 38 90q39 39 93 39q55 0 92 -37t37 -92q0 -56 -35 -94q-35 -35 -92 -35q-56 0 -92 37q-39 35 -39 92z" />
    <glyph glyph-name="igrave" unicode="&#xec;" horiz-adv-x="739" 
d="M119 -4v1034h502v-1034h-502zM188 1434h222l135 -263h-123z" />
    <glyph glyph-name="iacute" unicode="&#xed;" horiz-adv-x="739" 
d="M119 -4v1034h502v-1034h-502zM618 1423l-233 -262h-123l135 262h221z" />
    <glyph glyph-name="icircumflex" unicode="&#xee;" horiz-adv-x="739" 
d="M119 -4v1034h502v-1034h-502zM119 1143l145 262h219l146 -262h-123l-131 127l-133 -127h-123z" />
    <glyph glyph-name="idieresis" unicode="&#xef;" horiz-adv-x="739" 
d="M119 -4v1034h502v-1034h-502zM416 1296h-2q0 52 39 90q38 39 92 39t91.5 -36.5t37.5 -92.5t-35 -94q-40 -35 -92 -35q-54 0 -94 37q-37 37 -37 92zM63 1296h-2q0 51 39 90t93 39t92 -36q37 -39 37 -93t-35 -94q-37 -35 -92 -35q-54 0 -93 37t-39 92z" />
    <glyph glyph-name="eth" unicode="&#xf0;" horiz-adv-x="1331" 
d="M666 371q54 0 88 37q32 35 32 96q0 59 -30 94q-34 37 -90 37q-55 0 -88 -37q-35 -35 -35 -94t35 -96q33 -37 88 -37zM735 907q-34 51 -82 99t-116 98l-258 -125l-68 137l176 88q-18 12 -45 25q-43 21 -61 33l198 288q64 -33 150 -82q59 -33 133 -86l305 150l86 -131
l-256 -127q87 -70 157 -155.5t115 -176.5q95 -183 95 -393q0 -139 -39 -245.5t-119 -186.5q-159 -156 -440 -156q-267 0 -437 152t-170 387q0 205 129 334q130 127 334 127q48 0 105 -13q51 -12 108 -41z" />
    <glyph glyph-name="ntilde" unicode="&#xf1;" horiz-adv-x="1376" 
d="M109 0v1034h487v-143q64 88 143 133q80 43 179 43q166 0 262 -100q96 -104 96 -273v-694h-502v522q0 73 -16 107q-16 28 -56 28q-45 0 -67 -34q-23 -38 -23 -101v-522h-503zM999 1393h-2q-22 -102 -57 -146q-37 -45 -100 -45h-25q-5 0 -27 4l-67 19q-10 2 -27 2h-18
q-25 0 -39 -13q-16 -13 -25 -40h-88q20 92 56 137q37 43 98 43h31q10 0 34 -4l70 -19h18h19q24 0 39 17q17 17 22 45h88z" />
    <glyph glyph-name="ograve" unicode="&#xf2;" horiz-adv-x="1331" 
d="M666 373q55 0 88 39q34 40 34 102q0 64 -32 102q-33 39 -90 39q-56 0 -88 -39q-35 -40 -35 -102t35 -102q32 -39 88 -39zM1270 514q0 -114 -49 -223q-52 -107 -144 -187q-79 -67 -184 -106q-107 -37 -227 -37q-122 0 -226 37q-101 33 -186 106q-93 79 -141 187
q-52 105 -52 223q0 120 52 225q23 53 57 97t84 88q85 73 186 106q104 37 226 37q120 0 226.5 -37t186.5 -106q90 -78 142 -185q49 -109 49 -225zM459 1432h221l135 -263h-123z" />
    <glyph glyph-name="oacute" unicode="&#xf3;" horiz-adv-x="1331" 
d="M666 373q55 0 88 39q34 40 34 102q0 64 -32 102q-33 39 -90 39q-56 0 -88 -39q-35 -40 -35 -102t35 -102q32 -39 88 -39zM1270 514q0 -114 -49 -223q-52 -107 -144 -187q-79 -67 -184 -106q-107 -37 -227 -37q-122 0 -226 37q-101 33 -186 106q-93 79 -141 187
q-52 105 -52 223q0 120 52 225q23 53 57 97t84 88q85 73 186 106q104 37 226 37q120 0 226.5 -37t186.5 -106q90 -78 142 -185q49 -109 49 -225zM889 1432l-234 -263h-123l136 263h221z" />
    <glyph glyph-name="ocircumflex" unicode="&#xf4;" horiz-adv-x="1331" 
d="M666 373q55 0 88 39q34 40 34 102q0 64 -32 102q-33 39 -90 39q-56 0 -88 -39q-35 -40 -35 -102t35 -102q32 -39 88 -39zM1270 514q0 -114 -49 -223q-52 -107 -144 -187q-79 -67 -184 -106q-107 -37 -227 -37q-122 0 -226 37q-101 33 -186 106q-93 79 -141 187
q-52 105 -52 223q0 120 52 225q23 53 57 97t84 88q85 73 186 106q104 37 226 37q120 0 226.5 -37t186.5 -106q90 -78 142 -185q49 -109 49 -225zM389 1128l146 263h219l145 -263h-123l-131 127l-133 -127h-123z" />
    <glyph glyph-name="otilde" unicode="&#xf5;" horiz-adv-x="1331" 
d="M666 373q55 0 88 39q34 40 34 102q0 64 -32 102q-33 39 -90 39q-56 0 -88 -39q-35 -40 -35 -102t35 -102q32 -39 88 -39zM1270 514q0 -114 -49 -223q-52 -107 -144 -187q-79 -67 -184 -106q-107 -37 -227 -37q-122 0 -226 37q-101 33 -186 106q-93 79 -141 187
q-52 105 -52 223q0 120 52 225q23 53 57 97t84 88q85 73 186 106q104 37 226 37q120 0 226.5 -37t186.5 -106q90 -78 142 -185q49 -109 49 -225zM903 1389h-2q-21 -100 -57 -146q-36 -45 -101 -45h-24q-7 0 -27 4l-67 19q-11 2 -27 2h-18q-25 0 -39 -13q-16 -11 -25 -41h-88
q17 89 55 138q38 43 99 43h30q11 0 35 -4l70 -19h18h19q21 0 39 16q17 18 22 46h88z" />
    <glyph glyph-name="odieresis" unicode="&#xf6;" horiz-adv-x="1331" 
d="M666 373q55 0 88 39q34 40 34 102q0 64 -32 102q-33 39 -90 39q-56 0 -88 -39q-35 -40 -35 -102t35 -102q32 -39 88 -39zM1270 514q0 -114 -49 -223q-52 -107 -144 -187q-79 -67 -184 -106q-107 -37 -227 -37q-122 0 -226 37q-101 33 -186 106q-93 79 -141 187
q-52 105 -52 223q0 120 52 225q23 53 57 97t84 88q85 73 186 106q104 37 226 37q120 0 226.5 -37t186.5 -106q90 -78 142 -185q49 -109 49 -225zM696 1313h-2q0 49 39 90q39 39 92 39q56 0 92.5 -37t36.5 -92q0 -57 -34 -94q-38 -35 -93 -35q-54 0 -94 37q-37 37 -37 92z
M344 1313h-2q0 51 39 90t92 39q56 0 92 -37q37 -37 37 -92q0 -57 -35 -94q-33 -35 -92 -35q-55 0 -92 37q-39 35 -39 92z" />
    <glyph glyph-name="divide" unicode="&#xf7;" horiz-adv-x="1706" 
d="M854 371q73 0 127 -54q55 -54 55 -129q0 -74 -55 -129q-55 -53 -129 -53t-129 53q-53 53 -53 129q0 78 55 129q54 54 129 54zM1452 748v-273h-1198v273h1198zM854 1217q74 0 127 -56q55 -52 55 -129q0 -74 -55 -129q-53 -53 -129 -53t-129 53t-53 129q0 79 55 131
q54 54 129 54z" />
    <glyph glyph-name="oslash" unicode="&#xf8;" horiz-adv-x="1331" 
d="M623 338h6q40 -4 45 -4q85 0 137 49q53 50 53 129q0 36 -10 68q-9 27 -35 53zM711 688q-6 2 -21 2q-6 2 -33 2q-84 0 -135 -51q-53 -50 -53 -129q0 -34 10 -66q6 -19 33 -55zM346 -84l-113 64l62 94q-116 87 -174 198q-60 117 -60 242q0 117 50 225q50 102 143 185
q85 73 186 106q104 37 226 37q68 0 133 -12q58 -11 125 -37l63 94l119 -65l-62 -95q112 -83 168 -192q58 -113 58 -246q0 -117 -49 -223.5t-142 -184.5q-82 -70 -188 -108q-107 -37 -225 -37q-62 0 -127 12q-71 18 -127 39z" />
    <glyph glyph-name="ugrave" unicode="&#xf9;" horiz-adv-x="1339" 
d="M94 1034h494v-506q0 -106 18 -141q15 -31 64 -31q44 0 63 29q17 36 17 143v506h493v-557q0 -269 -137 -391q-137 -125 -436 -125t-437.5 124.5t-138.5 391.5v557zM440 1399h222l135 -262h-123z" />
    <glyph glyph-name="uacute" unicode="&#xfa;" horiz-adv-x="1339" 
d="M94 1034h494v-506q0 -106 18 -141q15 -31 64 -31q44 0 63 29q17 36 17 143v506h493v-557q0 -269 -137 -391q-137 -125 -436 -125t-437.5 124.5t-138.5 391.5v557zM963 1399l-234 -262h-123l135 262h222z" />
    <glyph glyph-name="ucircumflex" unicode="&#xfb;" horiz-adv-x="1339" 
d="M94 1034h494v-506q0 -106 18 -141q15 -31 64 -31q44 0 63 29q17 36 17 143v506h493v-557q0 -269 -137 -391q-137 -125 -436 -125t-437.5 124.5t-138.5 391.5v557zM424 1137l145 262h219l146 -262h-123l-131 127l-133 -127h-123z" />
    <glyph glyph-name="udieresis" unicode="&#xfc;" horiz-adv-x="1339" 
d="M94 1034h494v-506q0 -106 18 -141q15 -31 64 -31q44 0 63 29q17 36 17 143v506h493v-557q0 -269 -137 -391q-137 -125 -436 -125t-437.5 124.5t-138.5 391.5v557zM741 1280h-2q0 49 39 90q39 39 92 39q56 0 93 -37q36 -36 36 -92q0 -57 -34 -94q-38 -35 -93 -35
q-54 0 -94 37q-37 37 -37 92zM389 1280h-2q0 51 39 90t92 39q56 0 92 -37q37 -36 37 -92q0 -57 -35 -94q-33 -35 -92 -35q-55 0 -92 37q-39 35 -39 92z" />
    <glyph glyph-name="yacute" unicode="&#xfd;" horiz-adv-x="1300" 
d="M410 90l-449 944h551l78 -264q2 -2 2.5 -4.5t1.5 -5.5q55 -195 63 -281q9 40 17 72.5t16.5 64.5t14.5 56q8 39 26 104l76 258h516l-631 -1456h-534zM956 1409l-233 -262h-123l135 262h221z" />
    <glyph glyph-name="thorn" unicode="&#xfe;" horiz-adv-x="1300" 
d="M410 90l-449 944h551l78 -264q2 -2 2.5 -4.5t1.5 -5.5q55 -195 63 -281q9 40 17 72.5t16.5 64.5t14.5 56q8 39 26 104l76 258h516l-631 -1456h-534zM975 1352h-2q-23 -103 -58 -146q-36 -45 -100 -45h-24q-7 0 -27 4l-68 19q-10 2 -26 2h-19q-22 0 -39 -12
q-15 -13 -24 -41h-88q18 91 55 137q38 43 98 43h31q11 0 35 -4l69 -19h19h18q24 0 39 17q18 18 23 45h88z" />
    <glyph glyph-name="ydieresis" unicode="&#xff;" horiz-adv-x="1300" 
d="M410 90l-449 944h551l78 -264q2 -2 2.5 -4.5t1.5 -5.5q55 -195 63 -281q9 40 17 72.5t16.5 64.5t14.5 56q8 39 26 104l76 258h516l-631 -1456h-534zM698 1270h-2q0 49 39 90q40 39 92 39q54 0 93 -37q36 -37 36 -92q0 -57 -34 -94q-38 -35 -93 -35q-54 0 -94 37
q-37 37 -37 92zM346 1270h-2q0 51 39 90q40 39 92 39q55 0 92 -37t37 -92q0 -57 -35 -94q-33 -35 -92 -35q-55 0 -92 37q-39 35 -39 92z" />
    <glyph glyph-name="aahoa" unicode="&#x102;" horiz-adv-x="1507" 
d="M641 532h219l-45 166q-34 129 -45 195q-11 59 -14 127h-11q-3 -68 -14 -127q-14 -81 -45 -195zM-57 0l522 1464h586l512 -1464h-566l-47 184h-397l-45 -184h-565zM496 1761l108 2q3 -52 39 -75q34 -23 105 -23q69 0 106 25q35 24 35 75h104q-9 -120 -69.5 -174.5
t-178.5 -54.5q-119 0 -180 55q-63 57 -69 170z" />
    <glyph glyph-name="aath" unicode="&#x103;" horiz-adv-x="1389" 
d="M549 520q0 -68 37 -106q33 -41 92 -41q61 0 94 41q35 40 35 106q0 68 -35 109q-38 41 -94 41q-57 0 -92 -41q-37 -40 -37 -109zM823 0v156q-77 -103 -157 -148q-85 -47 -181 -47q-179 0 -299 154q-58 73 -88 173.5t-30 219.5q0 253 116 405q114 154 301 154q97 0 174 -41
q79 -44 146 -129v137h481v-1034h-463zM578 1354l108 2q3 -53 39 -76t104 -23t107 25q35 25 35 76h104q-9 -120 -69 -174q-62 -56 -179 -56q-118 0 -180 56q-63 57 -69 170z" />
    <glyph glyph-name="dhoa" unicode="&#x110;" horiz-adv-x="1647" 
d="M651 408q11 -2 27 -2h33q172 0 264 86q90 84 90 243q0 158 -90 242q-92 82 -266 82h-33q-17 0 -23 -2l-2 -154h209v-319h-209v-176zM166 0v571h-166v344h166v549h426q101 0 182.5 -5t163.5 -17q142 -22 233 -70q94 -48 169.5 -116.5t123.5 -147.5q101 -165 101 -377
q0 -213 -101 -375.5t-293 -263.5q-88 -48 -235 -69q-78 -11 -171.5 -17t-213.5 -6h-385z" />
    <glyph glyph-name="dth" unicode="&#x111;" horiz-adv-x="1389" 
d="M678 664q-57 0 -92 -41q-37 -40 -37 -109q0 -68 37 -111q34 -43 92 -43t92 43q37 43 37 111t-35 109q-38 41 -94 41zM1286 1550v-207h135v-110h-135v-1237h-469v151q-67 -98 -147 -143q-85 -47 -187 -47q-186 0 -303 154q-114 150 -114 405q0 119 30 219.5t88 173.5
q117 152 299 152q100 0 176 -43q80 -46 142 -135q-3 30 -6 75q-4 58 -4 107v172h-379v111h379l2 202h493z" />
    <glyph glyph-name="dth" unicode="&#x20ab;" horiz-adv-x="1389" 
d="M678 664q-57 0 -92 -41q-37 -40 -37 -109q0 -68 37 -111q34 -43 92 -43t92 43q37 43 37 111t-35 109q-38 41 -94 41zM1286 1550v-207h135v-110h-135v-1237h-469v151q-67 -98 -147 -143q-85 -47 -187 -47q-186 0 -303 154q-114 150 -114 405q0 119 30 219.5t88 173.5
q117 152 299 152q100 0 176 -43q80 -46 142 -135q-3 30 -6 75q-4 58 -4 107v172h-379v111h379l2 202h493z" />
    <glyph glyph-name="ihoanga" unicode="&#x128;" horiz-adv-x="829" 
d="M147 0v1464h535v-1464h-535zM651 1786h-2q-21 -100 -57 -146q-37 -45 -100 -45h-25q-5 0 -27 4l-67 19q-11 2 -27 2h-18q-24 0 -39 -12q-16 -15 -25 -41h-88q17 88 55 137q37 43 99 43h30q11 0 35 -4l70 -19h18h19q20 0 39 17q17 17 22 45h88z" />
    <glyph glyph-name="ithnga" unicode="&#x129;" horiz-adv-x="739" 
d="M119 -4v1034h502v-1034h-502zM623 1401h-2q-23 -103 -58 -146q-36 -45 -100 -45h-25q-6 0 -26 4l-68 19q-10 2 -27 2h-18q-24 0 -39 -12.5t-24 -40.5h-89q20 92 56 137q36 43 98 43h31q9 0 35 -4l69 -19h19h18q22 0 38.5 16.5t23.5 45.5h88z" />
    <glyph glyph-name="OE" unicode="&#x152;" horiz-adv-x="2238" 
d="M909 455q119 0 191 75q71 79 71 199q0 128 -71 205q-70 76 -191 76q-118 0 -188 -76q-72 -78 -72 -203q0 -124 72 -201q69 -75 188 -75zM1190 0v129q-93 -88 -191 -127q-102 -41 -219 -41q-99 0 -186 25q-82 19 -166 69q-168 104 -256 279q-29 57 -49 121t-30.5 130.5
t-10.5 143.5q0 166 49 303q50 144 148 250q95 105 219 160q125 55 270 55q122 0 221 -37q103 -36 201 -112v116h958v-397h-460v-141h419v-375h-419v-154h473v-397h-971z" />
    <glyph glyph-name="oe" unicode="&#x153;" horiz-adv-x="2017" 
d="M1970 434h-713v-16q0 -73 29 -117q27 -39 86 -39q36 0 60 21q26 23 41 59l466 -31q-57 -158 -204 -254q-151 -96 -338 -96q-103 0 -195.5 30.5t-179.5 94.5q-81 -61 -174 -92q-86 -33 -182 -33q-123 0 -224 37q-99 33 -190 108q-94 79 -141 185q-50 105 -50 223
q0 117 50 225q50 102 143 185q85 73 186 106q104 37 226 37q111 0 198 -29q84 -30 154 -94q82 63 168 92q87 31 190 31q156 0 289 -68q130 -68 217 -192q44 -61 68 -143q22 -85 22 -175v-34q-2 -9 -2 -21zM1262 662h225q-3 60 -31 88t-82 28q-46 0 -76 -28q-27 -32 -36 -88z
M680 369q61 0 100 41q37 38 37 104q0 68 -39 107q-38 41 -98 41q-65 -5 -98 -41q-39 -39 -39 -107q0 -66 39 -104q36 -41 98 -41z" />
    <glyph glyph-name="Scaron" unicode="&#x160;" horiz-adv-x="1251" 
d="M4 125l168 410q119 -81 203 -115q87 -37 164 -37q56 0 86 20q30 22 30 56q0 60 -155 94q-33 6 -78 16q-164 41 -252 142q-86 101 -86 254q0 233 170 385q169 147 442 147q130 0 248 -33q125 -33 246 -100l-160 -383q-80 58 -151 86q-84 29 -150 29q-55 0 -86 -19
q-29 -19 -29 -51q0 -63 220 -108q29 -9 53 -13q151 -33 237 -139q88 -103 88 -254q0 -244 -176 -397q-88 -78 -203 -116t-253 -38q-141 0 -287 41t-289 123zM408 1876l145 -262h219l146 262h-123l-131 -127l-134 127h-122z" />
    <glyph glyph-name="scaron" unicode="&#x161;" horiz-adv-x="999" 
d="M0 74l133 319q80 -54 152 -86q73 -28 118 -28q40 0 62 16q20 14 20 43q0 39 -90 57q-27 6 -47 11q-144 33 -211 106q-67 70 -67 186q0 163 137 267q137 102 352 102q112 0 209 -20q100 -23 186 -62l-123 -311q-75 50 -126 71q-57 23 -97 23q-35 0 -55 -14
q-21 -16 -21 -39q0 -38 117 -64q10 -2 25 -5.5t20 -4.5q152 -38 221 -104q72 -72 72 -183q0 -175 -139 -282q-141 -111 -371 -111q-124 0 -246 29q-110 25 -231 84zM287 1438l145 -262h219l146 262h-123l-131 -127l-133 127h-123z" />
    <glyph glyph-name="uhoanga" unicode="&#x168;" horiz-adv-x="1602" 
d="M121 670v794h526v-798q0 -141 33 -191q33 -53 113 -53q79 0 112 53q35 56 35 191v798h526v-794q0 -160 -20 -256q-22 -106 -66 -170q-89 -138 -239 -209q-156 -74 -348 -74q-193 0 -349 74q-150 71 -239 209q-41 64 -64 168q-20 96 -20 258zM1030 1786h-2
q-21 -100 -57 -146q-37 -45 -101 -45h-24q-7 0 -27 4l-67 19q-11 2 -27 2h-18q-24 0 -39.5 -12.5t-24.5 -40.5h-88q17 88 55 137q37 43 99 43h30q11 0 35 -4l70 -19h18h19q20 0 39 17q17 17 22 45h88z" />
    <glyph glyph-name="uthnga" unicode="&#x169;" horiz-adv-x="1339" 
d="M94 1034h494v-506q0 -106 18 -141q15 -31 64 -31q44 0 63 29q17 36 17 143v506h493v-557q0 -269 -137 -391q-137 -125 -436 -125t-437.5 124.5t-138.5 391.5v557zM905 1356h-2q-21 -100 -57 -146q-37 -45 -101 -45h-24q-5 0 -27 4l-67 19q-11 2 -27 2h-18
q-24 0 -39.5 -12.5t-24.5 -40.5h-88q17 88 55 137q37 43 99 43h30q11 0 35 -4l70 -19h18h19q22 0 39 17t22 45h88z" />
    <glyph glyph-name="florin" unicode="&#x192;" horiz-adv-x="1403" 
d="M451 594h-191l49 285h197l35 200q22 121 47 172q28 60 71 105q55 55 150 92q88 33 192 33q78 0 146 -6q91 -15 123 -23l-62 -373q-34 11 -47 13q-12 2 -33 2q-45 0 -71 -29q-27 -32 -39 -104l-14 -82h184l-53 -285h-183l-84 -463q-33 -177 -65 -268q-34 -94 -86 -158
q-59 -74 -166 -115q-110 -41 -246 -41q-49 0 -98 7q-58 6 -121 18l64 371q9 -1 18 -2.5t18 -3.5q13 -2 35 -2q117 0 182 378q2 12 4 24.5t5 29.5z" />
    <glyph glyph-name="ochoa" unicode="&#x1a0;" horiz-adv-x="1735" 
d="M868 453q111 0 179 75q67 77 67 201q0 127 -67 203q-69 76 -179 76t-180 -76q-67 -76 -67 -203q0 -124 67 -201q69 -75 180 -75zM1651 729v2q0 -162 -58 -299q-60 -142 -166 -248q-108 -105 -253 -164q-145 -57 -306 -57q-163 0 -307 57q-140 57 -254 166
q-110 111 -166 244q-55 137 -55 301t55 301q58 136 166 246q110 107 252 166q143 55 309 55q164 0 308 -55q143 -58 254 -166q57 -52 94 -115q42 4 62 44t26 107.5t6 176.5h160q0 -159 -22 -247.5t-66.5 -127.5t-116.5 -47q78 -152 78 -340z" />
    <glyph glyph-name="octh" unicode="&#x1a1;" horiz-adv-x="1372" 
d="M666 373q55 0 88 39q34 40 34 102q0 64 -32 102q-33 39 -90 39q-56 0 -88 -39q-35 -40 -35 -102t35 -102q32 -39 88 -39zM1270 514v6q0 -113 -49 -223q-52 -108 -144 -186q-78 -68 -184 -107q-111 -37 -227 -37q-118 0 -226 37q-105 36 -186 107q-93 78 -141 186
q-52 107 -52 223q0 120 52 225q47 107 141 185q85 73 186 106q104 37 226 37q120 0 226.5 -37t186.5 -106q89 -75 142 -185q38 16 54.5 67t16.5 161q0 57 -2 92l156 2q-8 -205 -56 -288t-141 -113q21 -46 21 -152z" />
    <glyph glyph-name="uchoa" unicode="&#x1af;" horiz-adv-x="1602" 
d="M121 670v792h526v-798q0 -141 33 -191q33 -53 113 -53q79 0 112 53q35 56 35 191v798h526v-327q52 21 71 96.5t19 226.5h160q-6 -161 -35 -248t-80.5 -124t-134.5 -50v-366q0 -160 -20 -256q-22 -106 -66 -170q-89 -138 -239 -209q-156 -74 -348 -74q-193 0 -349 74
q-150 71 -239 209q-41 64 -64 168q-20 96 -20 258z" />
    <glyph glyph-name="ucth" unicode="&#x1b0;" horiz-adv-x="1393" 
d="M94 1034h494v-506q0 -106 18 -141q15 -31 64 -31q44 0 63 29q17 36 17 143v506h493v-321q51 18 70.5 93t19.5 226h160q-6 -158 -35 -244.5t-80 -123.5t-135 -50v-137q0 -269 -137 -391q-137 -125 -436 -125t-437.5 124.5t-138.5 391.5v557z" />
    <glyph glyph-name="circumflex" unicode="&#x2c6;" horiz-adv-x="1024" 
d="M190 1171l185 351h274l182 -351h-153l-166 170l-168 -170h-154z" />
    <glyph glyph-name="tilde" unicode="&#x2dc;" horiz-adv-x="1024" 
d="M844 1497q-33 -138 -82 -194q-53 -62 -137 -62q-25 0 -37 2q-9 1 -39 10l-92 27q-13 4 -22 5t-17 3q-24 4 -29 4q-32 0 -53.5 -18.5t-36.5 -59.5h-119q29 127 80 187q53 59 135 59q15 0 43 -4q15 -2 47 -10l95 -27q16 -4 26 -6t31 -2q34 0 55 23q25 23 33 63h119z" />
    <glyph glyph-name="abhuyenth" unicode="&#x300;" 
d="M-686 1597h221l135 -262h-123z" />
    <glyph glyph-name="absacth" unicode="&#x301;" 
d="M-123 1587l-233 -262h-123l135 262h221z" />
    <glyph glyph-name="absacth" unicode="&#x302;" 
d="M-123 1587l-233 -262h-123l135 262h221z" />
    <glyph glyph-name="abngath" unicode="&#x303;" 
d="M-420 1659h-2q-21 -100 -57 -146q-37 -45 -101 -45h-24q-10 0 -27 5l-67 18q-11 2 -27 2h-18q-24 0 -39 -12q-15 -11 -25 -41h-88q17 88 55 137q37 43 99 43h30q11 0 35 -4l70 -19h18h19q20 0 39 17q17 17 22 45h88z" />
    <glyph glyph-name="abhoith" unicode="&#x309;" 
d="M-461 1300v142h19h12q27 0 37 10q10 7 10 31q0 16 -2 20q-4 4 -18 4q-16 0 -19 -6q-4 -8 -4 -28h-180q3 83 57 131q57 49 146 49q91 0 146.5 -51.5t55.5 -135.5q0 -75 -55 -120.5t-147 -45.5h-27h-31z" />
    <glyph glyph-name="ananghoa" unicode="&#x323;" 
d="M-737 -266q0 -57 -37 -88t-100 -31q-64 0 -101 31t-37 88q0 56 37 88q35 28 101 28q65 0 100 -28q37 -32 37 -88z" />
    <glyph glyph-name="ananghoa" unicode="&#xf02b;" 
d="M-737 -266q0 -57 -37 -88t-100 -31q-64 0 -101 31t-37 88q0 56 37 88q35 28 101 28q65 0 100 -28q37 -32 37 -88z" />
    <glyph glyph-name="ananghoa" unicode="&#xf029;" 
d="M-737 -266q0 -57 -37 -88t-100 -31q-64 0 -101 31t-37 88q0 56 37 88q35 28 101 28q65 0 100 -28q37 -32 37 -88z" />
    <glyph glyph-name="ananghoa" unicode="&#xf022;" 
d="M-737 -266q0 -57 -37 -88t-100 -31q-64 0 -101 31t-37 88q0 56 37 88q35 28 101 28q65 0 100 -28q37 -32 37 -88z" />
    <glyph glyph-name="ananghoa" unicode="&#xf021;" 
d="M-737 -266q0 -57 -37 -88t-100 -31q-64 0 -101 31t-37 88q0 56 37 88q35 28 101 28q65 0 100 -28q37 -32 37 -88z" />
    <glyph glyph-name="ananghoa" unicode="&#xf020;" 
d="M-737 -266q0 -57 -37 -88t-100 -31q-64 0 -101 31t-37 88q0 56 37 88q35 28 101 28q65 0 100 -28q37 -32 37 -88z" />
    <glyph glyph-name="ananghoa" unicode="&#xf01f;" 
d="M-737 -266q0 -57 -37 -88t-100 -31q-64 0 -101 31t-37 88q0 56 37 88q35 28 101 28q65 0 100 -28q37 -32 37 -88z" />
    <glyph glyph-name="ananghoa" unicode="&#xf01e;" 
d="M-737 -266q0 -57 -37 -88t-100 -31q-64 0 -101 31t-37 88q0 56 37 88q35 28 101 28q65 0 100 -28q37 -32 37 -88z" />
    <glyph glyph-name="ahuyenhoa" unicode="&#x340;" 
d="M-1065 1833h221l135 -262h-122z" />
    <glyph glyph-name="ahuyenhoa" unicode="&#xf00c;" 
d="M-1065 1833h221l135 -262h-122z" />
    <glyph glyph-name="asachoa" unicode="&#x341;" 
d="M-666 1853l-233 -262h-123l135 262h221z" />
    <glyph glyph-name="asachoa" unicode="&#xf007;" 
d="M-666 1853l-233 -262h-123l135 262h221z" />
    <glyph glyph-name="angahoa" unicode="&#x342;" 
d="M-614 1792h-2q-24 -104 -58 -145q-35 -45 -100 -45h-25q-6 0 -26 4l-68 18q-10 2 -27 2h-18q-24 0 -39 -12q-14 -11 -24 -41h-89q20 92 56 137q36 43 98 43h31q9 0 35 -4l69 -18h19h18q23 0 39 16t23 45h88z" />
    <glyph glyph-name="angahoa" unicode="&#xf030;" 
d="M-614 1792h-2q-24 -104 -58 -145q-35 -45 -100 -45h-25q-6 0 -26 4l-68 18q-10 2 -27 2h-18q-24 0 -39 -12q-14 -11 -24 -41h-89q20 92 56 137q36 43 98 43h31q9 0 35 -4l69 -18h19h18q23 0 39 16t23 45h88z" />
    <glyph glyph-name="angahoa" unicode="&#xf02e;" 
d="M-614 1792h-2q-24 -104 -58 -145q-35 -45 -100 -45h-25q-6 0 -26 4l-68 18q-10 2 -27 2h-18q-24 0 -39 -12q-14 -11 -24 -41h-89q20 92 56 137q36 43 98 43h31q9 0 35 -4l69 -18h19h18q23 0 39 16t23 45h88z" />
    <glyph glyph-name="angahoa" unicode="&#xf01c;" 
d="M-614 1792h-2q-24 -104 -58 -145q-35 -45 -100 -45h-25q-6 0 -26 4l-68 18q-10 2 -27 2h-18q-24 0 -39 -12q-14 -11 -24 -41h-89q20 92 56 137q36 43 98 43h31q9 0 35 -4l69 -18h19h18q23 0 39 16t23 45h88z" />
    <glyph glyph-name="angahoa" unicode="&#xf017;" 
d="M-614 1792h-2q-24 -104 -58 -145q-35 -45 -100 -45h-25q-6 0 -26 4l-68 18q-10 2 -27 2h-18q-24 0 -39 -12q-14 -11 -24 -41h-89q20 92 56 137q36 43 98 43h31q9 0 35 -4l69 -18h19h18q23 0 39 16t23 45h88z" />
    <glyph glyph-name="angahoa" unicode="&#xf016;" 
d="M-614 1792h-2q-24 -104 -58 -145q-35 -45 -100 -45h-25q-6 0 -26 4l-68 18q-10 2 -27 2h-18q-24 0 -39 -12q-14 -11 -24 -41h-89q20 92 56 137q36 43 98 43h31q9 0 35 -4l69 -18h19h18q23 0 39 16t23 45h88z" />
    <glyph glyph-name="ahoanang" unicode="&#x1ea0;" horiz-adv-x="1507" 
d="M641 532h219l-45 166q-34 129 -45 195q-11 59 -14 127h-11q-3 -68 -14 -127q-14 -81 -45 -195zM-57 0l522 1464h586l512 -1464h-566l-47 184h-397l-45 -184h-565zM897 -254q0 -58 -37 -88.5t-100 -30.5q-62 0 -101 31q-36 30 -36 88t35.5 87.5t101.5 29.5q67 0 100 -29
q37 -30 37 -88z" />
    <glyph glyph-name="athnang" unicode="&#x1ea1;" horiz-adv-x="1389" 
d="M549 520q0 -68 37 -106q33 -41 92 -41q61 0 94 41q35 40 35 106q0 68 -35 109q-38 41 -94 41q-57 0 -92 -41q-37 -40 -37 -109zM823 0v156q-77 -103 -157 -148q-85 -47 -181 -47q-179 0 -299 154q-58 73 -88 173.5t-30 219.5q0 253 116 405q114 154 301 154q97 0 174 -41
q79 -44 146 -129v137h481v-1034h-463zM829 -272q0 -58 -36.5 -88.5t-100.5 -30.5q-65 0 -100 31q-37 30 -37 88q0 57 37 88q34 28 100 28t101 -28q36 -31 36 -88z" />
    <glyph glyph-name="ahoahoi" unicode="&#x1ea2;" horiz-adv-x="1507" 
d="M641 532h219l-45 166q-34 129 -45 195q-11 59 -14 127h-11q-3 -68 -14 -127q-14 -81 -45 -195zM-57 0l522 1464h586l512 -1464h-566l-47 184h-397l-45 -184h-565zM666 1567v141h18h12q27 0 37 10q10 7 10 31q0 16 -2 20q-4 5 -18 5q-15 0 -18 -7q-5 -7 -5 -28h-180
q3 82 58 131q53 49 145 49q95 0 147 -51q56 -53 56 -135q0 -76 -56 -121q-52 -45 -147 -45h-27h-30z" />
    <glyph glyph-name="athhoi" unicode="&#x1ea3;" horiz-adv-x="1389" 
d="M549 520q0 -68 37 -106q33 -41 92 -41q61 0 94 41q35 40 35 106q0 68 -35 109q-38 41 -94 41q-57 0 -92 -41q-37 -40 -37 -109zM823 0v156q-77 -103 -157 -148q-85 -47 -181 -47q-179 0 -299 154q-58 73 -88 173.5t-30 219.5q0 253 116 405q114 154 301 154q97 0 174 -41
q79 -44 146 -129v137h481v-1034h-463zM680 1169v142h18h13q26 0 37 10q10 7 10 31q0 16 -2 20q-4 4 -19 4t-18 -6q-4 -8 -4 -29h-180q3 84 57 132q57 49 145 49q93 0 148 -52q55 -51 55 -135q0 -75 -55 -121q-55 -45 -148 -45h-26h-31z" />
    <glyph glyph-name="abhoasac" unicode="&#x1ea4;" horiz-adv-x="1507" 
d="M641 532h219l-45 166q-34 129 -45 195q-11 59 -14 127h-11q-3 -68 -14 -127q-14 -81 -45 -195zM-57 0l522 1464h586l512 -1464h-566l-47 184h-397l-45 -184h-565zM485 1526l146 262h219l145 -262h-123l-131 127l-133 -127h-123zM1329 1978l-233 -262h-123l135 262h221z
" />
    <glyph glyph-name="abthsac" unicode="&#x1ea5;" horiz-adv-x="1389" 
d="M549 520q0 -68 37 -106q33 -41 92 -41q61 0 94 41q35 40 35 106q0 68 -35 109q-38 41 -94 41q-57 0 -92 -41q-37 -40 -37 -109zM823 0v156q-77 -103 -157 -148q-85 -47 -181 -47q-179 0 -299 154q-58 73 -88 173.5t-30 219.5q0 253 116 405q114 154 301 154q97 0 174 -41
q79 -44 146 -129v137h481v-1034h-463zM485 1149l146 262h219l145 -262h-123l-131 127l-133 -127h-123zM1329 1602l-233 -263h-123l135 263h221z" />
    <glyph glyph-name="abhoahuyen" unicode="&#x1ea6;" horiz-adv-x="1507" 
d="M641 532h219l-45 166q-34 129 -45 195q-11 59 -14 127h-11q-3 -68 -14 -127q-14 -81 -45 -195zM-57 0l522 1464h586l512 -1464h-566l-47 184h-397l-45 -184h-565zM485 1526l146 262h219l145 -262h-123l-131 127l-133 -127h-123zM735 2040h221l136 -262h-123z" />
    <glyph glyph-name="abthhuyen" unicode="&#x1ea7;" horiz-adv-x="1389" 
d="M549 520q0 -68 37 -106q33 -41 92 -41q61 0 94 41q35 40 35 106q0 68 -35 109q-38 41 -94 41q-57 0 -92 -41q-37 -40 -37 -109zM823 0v156q-77 -103 -157 -148q-85 -47 -181 -47q-179 0 -299 154q-58 73 -88 173.5t-30 219.5q0 253 116 405q114 154 301 154q97 0 174 -41
q79 -44 146 -129v137h481v-1034h-463zM485 1149l146 262h219l145 -262h-123l-131 127l-133 -127h-123zM735 1663h221l136 -262h-123z" />
    <glyph glyph-name="abhoahoi" unicode="&#x1ea8;" horiz-adv-x="1507" 
d="M641 532h219l-45 166q-34 129 -45 195q-11 59 -14 127h-11q-3 -68 -14 -127q-14 -81 -45 -195zM-57 0l522 1464h586l512 -1464h-566l-47 184h-397l-45 -184h-565zM485 1526l146 262h219l145 -262h-123l-131 127l-133 -127h-123zM967 1696v141h18h12q27 0 37 10
q10 7 10 31q0 16 -2 20q-4 5 -18 5q-15 0 -18 -7q-5 -10 -5 -28h-180q3 82 58 131q53 49 145 49q95 0 147 -51q56 -53 56 -135q0 -74 -56 -121q-52 -45 -147 -45h-27h-30z" />
    <glyph glyph-name="abthhoi" unicode="&#x1ea9;" horiz-adv-x="1389" 
d="M549 520q0 -68 37 -106q33 -41 92 -41q61 0 94 41q35 40 35 106q0 68 -35 109q-38 41 -94 41q-57 0 -92 -41q-37 -40 -37 -109zM823 0v156q-77 -103 -157 -148q-85 -47 -181 -47q-179 0 -299 154q-58 73 -88 173.5t-30 219.5q0 253 116 405q114 154 301 154q97 0 174 -41
q79 -44 146 -129v137h481v-1034h-463zM485 1149l146 262h219l145 -262h-123l-131 127l-133 -127h-123zM967 1319v141h18h12q27 0 37 9.5t10 31.5q0 17 -2 21q-4 4 -18 4q-15 0 -18 -6q-5 -10 -5 -29h-180q3 82 58 131q53 49 145 49q95 0 147 -51q56 -53 56 -135
q0 -74 -56 -121q-52 -45 -147 -45h-27h-30z" />
    <glyph glyph-name="abhoanga" unicode="&#x1eaa;" horiz-adv-x="1507" 
d="M641 532h219l-45 166q-34 129 -45 195q-11 59 -14 127h-11q-3 -68 -14 -127q-14 -81 -45 -195zM-57 0l522 1464h586l512 -1464h-566l-47 184h-397l-45 -184h-565zM485 1526l146 262h219l145 -262h-123l-131 127l-133 -127h-123zM985 2079h-2q-21 -100 -57 -146
q-37 -45 -101 -45h-24q-7 0 -27 4l-67 19q-11 2 -27 2h-18q-24 0 -39.5 -12.5t-24.5 -40.5h-88q17 88 55 137q38 43 99 43h30q11 0 35 -4l70 -19h18h19q23 0 38 17q17 16 23 45h88z" />
    <glyph glyph-name="abthnga" unicode="&#x1eab;" horiz-adv-x="1389" 
d="M549 520q0 -68 37 -106q33 -41 92 -41q61 0 94 41q35 40 35 106q0 68 -35 109q-38 41 -94 41q-57 0 -92 -41q-37 -40 -37 -109zM823 0v156q-77 -103 -157 -148q-85 -47 -181 -47q-179 0 -299 154q-58 73 -88 173.5t-30 219.5q0 253 116 405q114 154 301 154q97 0 174 -41
q79 -44 146 -129v137h481v-1034h-463zM485 1149l146 262h219l145 -262h-123l-131 127l-133 -127h-123zM985 1702h-2q-21 -100 -57 -146q-37 -45 -101 -45h-24q-10 0 -27 5l-67 18q-11 2 -27 2h-18q-24 0 -39 -12q-15 -11 -25 -41h-88q17 88 55 137q37 43 99 43h30
q11 0 35 -4l70 -19h18h19q21 0 38 16.5t23 45.5h88z" />
    <glyph glyph-name="abhoanang" unicode="&#x1eac;" horiz-adv-x="1507" 
d="M641 532h219l-45 166q-34 129 -45 195q-11 59 -14 127h-11q-3 -68 -14 -127q-14 -81 -45 -195zM-57 0l522 1464h586l512 -1464h-566l-47 184h-397l-45 -184h-565zM485 1526l146 262h219l145 -262h-123l-131 127l-133 -127h-123zM891 -244q0 -57 -37 -88q-37 -30 -100 -30
t-101 30q-37 32 -37 88q0 57 37 88q35 29 101 29q65 0 100 -29q37 -30 37 -88z" />
    <glyph glyph-name="abthnang" unicode="&#x1ead;" horiz-adv-x="1389" 
d="M549 520q0 -68 37 -106q33 -41 92 -41q61 0 94 41q35 40 35 106q0 68 -35 109q-38 41 -94 41q-57 0 -92 -41q-37 -40 -37 -109zM823 0v156q-77 -103 -157 -148q-85 -47 -181 -47q-179 0 -299 154q-58 73 -88 173.5t-30 219.5q0 253 116 405q114 154 301 154q97 0 174 -41
q79 -44 146 -129v137h481v-1034h-463zM485 1149l146 262h219l145 -262h-123l-131 127l-133 -127h-123zM860 -242q0 -57 -37 -88q-36 -30 -100 -30t-100 30q-37 31 -37 88q0 58 37 88q33 29 100 29t100 -29q37 -30 37 -88z" />
    <glyph glyph-name="aahoasac" unicode="&#x1eae;" horiz-adv-x="1507" 
d="M641 532h219l-45 166q-34 129 -45 195q-11 59 -14 127h-11q-3 -68 -14 -127q-14 -81 -45 -195zM-57 0l522 1464h586l512 -1464h-566l-47 184h-397l-45 -184h-565zM496 1761l108 2q3 -52 39 -75q34 -23 105 -23q69 0 106 25q35 24 35 75h104q-9 -120 -69.5 -174.5
t-178.5 -54.5q-119 0 -180 55q-63 57 -69 170zM1032 2109l-233 -262h-123l135 262h221z" />
    <glyph glyph-name="aathsac" unicode="&#x1eaf;" horiz-adv-x="1389" 
d="M549 520q0 -68 37 -106q33 -41 92 -41q61 0 94 41q35 40 35 106q0 68 -35 109q-38 41 -94 41q-57 0 -92 -41q-37 -40 -37 -109zM823 0v156q-77 -103 -157 -148q-85 -47 -181 -47q-179 0 -299 154q-58 73 -88 173.5t-30 219.5q0 253 116 405q114 154 301 154q97 0 174 -41
q79 -44 146 -129v137h481v-1034h-463zM578 1354l108 2q3 -53 39 -76t104 -23t107 25q35 25 35 76h104q-9 -120 -69 -174q-62 -56 -179 -56q-118 0 -180 56q-63 57 -69 170zM1114 1702l-233 -262h-123l135 262h221z" />
    <glyph glyph-name="aahoahuyen" unicode="&#x1eb0;" horiz-adv-x="1507" 
d="M641 532h219l-45 166q-34 129 -45 195q-11 59 -14 127h-11q-3 -68 -14 -127q-14 -81 -45 -195zM-57 0l522 1464h586l512 -1464h-566l-47 184h-397l-45 -184h-565zM496 1761l108 2q3 -52 39 -75q34 -23 105 -23q69 0 106 25q35 24 35 75h104q-9 -120 -69.5 -174.5
t-178.5 -54.5q-119 0 -180 55q-63 57 -69 170zM479 2109h221l136 -262h-123z" />
    <glyph glyph-name="aathhuyen" unicode="&#x1eb1;" horiz-adv-x="1389" 
d="M549 520q0 -68 37 -106q33 -41 92 -41q61 0 94 41q35 40 35 106q0 68 -35 109q-38 41 -94 41q-57 0 -92 -41q-37 -40 -37 -109zM823 0v156q-77 -103 -157 -148q-85 -47 -181 -47q-179 0 -299 154q-58 73 -88 173.5t-30 219.5q0 253 116 405q114 154 301 154q97 0 174 -41
q79 -44 146 -129v137h481v-1034h-463zM578 1354l108 2q3 -53 39 -76t104 -23t107 25q35 25 35 76h104q-9 -120 -69 -174q-62 -56 -179 -56q-118 0 -180 56q-63 57 -69 170zM561 1702h221l136 -262h-123z" />
    <glyph glyph-name="aahoahoi" unicode="&#x1eb2;" horiz-adv-x="1507" 
d="M641 532h219l-45 166q-34 129 -45 195q-11 59 -14 127h-11q-3 -68 -14 -127q-14 -81 -45 -195zM-57 0l522 1464h586l512 -1464h-566l-47 184h-397l-45 -184h-565zM496 1761l108 2q3 -52 39 -75q34 -23 105 -23q69 0 106 25q35 24 35 75h104q-9 -120 -69.5 -174.5
t-178.5 -54.5q-119 0 -180 55q-63 57 -69 170zM700 1827v141h19h12q27 0 37 9.5t10 31.5q0 16 -2 21q-4 4 -18 4q-16 0 -19 -6q-4 -10 -4 -29h-180q3 83 57 131q55 49 146 49q93 0 147 -51q56 -53 56 -135q0 -74 -56 -121q-54 -45 -147 -45h-27h-31z" />
    <glyph glyph-name="aathhoi" unicode="&#x1eb3;" horiz-adv-x="1389" 
d="M549 520q0 -68 37 -106q33 -41 92 -41q61 0 94 41q35 40 35 106q0 68 -35 109q-38 41 -94 41q-57 0 -92 -41q-37 -40 -37 -109zM823 0v156q-77 -103 -157 -148q-85 -47 -181 -47q-179 0 -299 154q-58 73 -88 173.5t-30 219.5q0 253 116 405q114 154 301 154q97 0 174 -41
q79 -44 146 -129v137h481v-1034h-463zM578 1354l108 2q3 -53 39 -76t104 -23t107 25q35 25 35 76h104q-9 -120 -69 -174q-62 -56 -179 -56q-118 0 -180 56q-63 57 -69 170zM782 1419v142h19h12q27 0 37 10q10 7 10 31q0 16 -2 20q-4 4 -18 4q-16 0 -19 -6q-4 -8 -4 -29h-180
q3 84 57 131q56 50 146 50q92 0 147 -52q55 -51 55 -135q0 -75 -55 -121q-55 -45 -147 -45h-27h-31z" />
    <glyph glyph-name="aahoanga" unicode="&#x1eb4;" horiz-adv-x="1507" 
d="M641 532h219l-45 166q-34 129 -45 195q-11 59 -14 127h-11q-3 -68 -14 -127q-14 -81 -45 -195zM-57 0l522 1464h586l512 -1464h-566l-47 184h-397l-45 -184h-565zM496 1761l108 2q3 -52 39 -75q34 -23 105 -23q69 0 106 25q35 24 35 75h104q-9 -120 -69.5 -174.5
t-178.5 -54.5q-119 0 -180 55q-63 57 -69 170zM995 2087h-2q-22 -103 -57 -145q-37 -46 -100 -46h-25q-9 0 -27 5l-67 18q-10 2 -27 2h-18q-24 0 -39 -12t-25 -41h-88q17 88 55 137q37 43 99 43h31q10 0 34 -4l70 -19h18h19q20 0 39 17q17 17 22 45h88z" />
    <glyph glyph-name="aathnga" unicode="&#x1eb5;" horiz-adv-x="1389" 
d="M549 520q0 -68 37 -106q33 -41 92 -41q61 0 94 41q35 40 35 106q0 68 -35 109q-38 41 -94 41q-57 0 -92 -41q-37 -40 -37 -109zM823 0v156q-77 -103 -157 -148q-85 -47 -181 -47q-179 0 -299 154q-58 73 -88 173.5t-30 219.5q0 253 116 405q114 154 301 154q97 0 174 -41
q79 -44 146 -129v137h481v-1034h-463zM578 1354l108 2q3 -53 39 -76t104 -23t107 25q35 25 35 76h104q-9 -120 -69 -174q-62 -56 -179 -56q-118 0 -180 56q-63 57 -69 170zM1077 1679h-2q-21 -99 -57 -145q-36 -45 -100 -45h-25q-5 0 -27 4l-67 18q-11 2 -27 2h-18
q-24 0 -39.5 -12.5t-24.5 -40.5h-88q17 90 55 137q37 43 99 43h30q11 0 35 -4l70 -18h18h19q21 0 39 16q17 18 22 45h88z" />
    <glyph glyph-name="aahoanang" unicode="&#x1eb6;" horiz-adv-x="1507" 
d="M641 532h219l-45 166q-34 129 -45 195q-11 59 -14 127h-11q-3 -68 -14 -127q-14 -81 -45 -195zM-57 0l522 1464h586l512 -1464h-566l-47 184h-397l-45 -184h-565zM496 1761l108 2q3 -52 39 -75q34 -23 105 -23q69 0 106 25q35 24 35 75h104q-9 -120 -69.5 -174.5
t-178.5 -54.5q-119 0 -180 55q-63 57 -69 170zM881 -244q0 -56 -37 -88q-37 -30 -101 -30q-62 0 -100 30q-37 31 -37 88q0 58 37 88q35 29 100 29q66 0 101 -29q37 -31 37 -88z" />
    <glyph glyph-name="aathnang" unicode="&#x1eb7;" horiz-adv-x="1389" 
d="M549 520q0 -68 37 -106q33 -41 92 -41q61 0 94 41q35 40 35 106q0 68 -35 109q-38 41 -94 41q-57 0 -92 -41q-37 -40 -37 -109zM823 0v156q-77 -103 -157 -148q-85 -47 -181 -47q-179 0 -299 154q-58 73 -88 173.5t-30 219.5q0 253 116 405q114 154 301 154q97 0 174 -41
q79 -44 146 -129v137h481v-1034h-463zM578 1354l108 2q3 -53 39 -76t104 -23t107 25q35 25 35 76h104q-9 -120 -69 -174q-62 -56 -179 -56q-118 0 -180 56q-63 57 -69 170zM891 -252q0 -57 -37 -88q-39 -31 -100 -31q-62 0 -101 31q-37 32 -37 88q0 57 37 88q35 29 101 29
q65 0 100 -29q37 -30 37 -88z" />
    <glyph glyph-name="ehoanang" unicode="&#x1eb8;" horiz-adv-x="1204" 
d="M137 0v1464h979v-397h-463v-141h420v-375h-420v-154h475v-397h-991zM756 -244q0 -56 -37 -88q-37 -30 -101 -30q-62 0 -100 30q-37 32 -37 88q0 57 37 88q35 29 100 29q66 0 101 -29q37 -31 37 -88z" />
    <glyph glyph-name="ethnang" unicode="&#x1eb9;" horiz-adv-x="1321" 
d="M1272 434h-713v-16q0 -76 29 -117q26 -39 86 -39q36 0 61 21q26 19 41 59l465 -31q-61 -167 -211 -260q-149 -90 -364 -90q-120 0 -224 37q-111 40 -188 106q-94 83 -143 187q-50 108 -50 223q0 120 52 225q23 53 57 97t84 88q85 73 186 106q104 37 226 37q81 0 158 -17
t141 -49q127 -65 219 -194q46 -66 67 -143q23 -80 23 -172v-35q0 -17 -2 -23zM563 659l228 -2q-5 63 -31 91q-28 30 -82 30q-46 0 -78 -30q-28 -33 -37 -89zM791 -262q0 -57 -37 -88t-101 -31q-63 0 -100 30.5t-37 88.5q0 57 37 88q36 29 100 29q65 0 101 -29q37 -32 37 -88
z" />
    <glyph glyph-name="ehoahoi" unicode="&#x1eba;" horiz-adv-x="1204" 
d="M137 0v1464h979v-397h-463v-141h420v-375h-420v-154h475v-397h-991zM575 1567v141h19h12q27 0 37 10q10 7 10 31q0 16 -2 20q-4 5 -18 5q-16 0 -19.5 -7.5t-3.5 -27.5h-180q3 81 57 131q55 49 146 49q93 0 147 -51q56 -53 56 -135q0 -76 -56 -121q-54 -45 -147 -45h-27
h-31z" />
    <glyph glyph-name="ethhoi" unicode="&#x1ebb;" horiz-adv-x="1321" 
d="M1272 434h-713v-16q0 -76 29 -117q26 -39 86 -39q36 0 61 21q26 19 41 59l465 -31q-61 -167 -211 -260q-149 -90 -364 -90q-120 0 -224 37q-111 40 -188 106q-94 83 -143 187q-50 108 -50 223q0 120 52 225q23 53 57 97t84 88q85 73 186 106q104 37 226 37q81 0 158 -17
t141 -49q127 -65 219 -194q46 -66 67 -143q23 -80 23 -172v-35q0 -17 -2 -23zM563 659l228 -2q-5 63 -31 91q-28 30 -82 30q-46 0 -78 -30q-28 -33 -37 -89zM610 1169v142h19h12q27 0 37 10q10 7 10 31q0 16 -2 20q-4 4 -18 4q-16 0 -19 -6q-4 -8 -4 -29h-180q3 84 57 132
q57 49 146 49q92 0 147 -52q55 -51 55 -135q0 -75 -55 -121q-55 -45 -147 -45h-27h-31z" />
    <glyph glyph-name="ehoanga" unicode="&#x1ebc;" horiz-adv-x="1204" 
d="M137 0v1464h979v-397h-463v-141h420v-375h-420v-154h475v-397h-991zM870 1786h-2q-22 -102 -57 -146q-37 -45 -100 -45h-25q-5 0 -27 4l-67 19q-10 2 -27 2h-18q-24 0 -39 -12q-16 -15 -25 -41h-88q20 92 56 137q36 43 98 43h31q10 0 34 -4l70 -19h18h19q22 0 39 17
t22 45h88z" />
    <glyph glyph-name="ethnga" unicode="&#x1ebd;" horiz-adv-x="1321" 
d="M1272 434h-713v-16q0 -76 29 -117q26 -39 86 -39q36 0 61 21q26 19 41 59l465 -31q-61 -167 -211 -260q-149 -90 -364 -90q-120 0 -224 37q-111 40 -188 106q-94 83 -143 187q-50 108 -50 223q0 120 52 225q23 53 57 97t84 88q85 73 186 106q104 37 226 37q81 0 158 -17
t141 -49q127 -65 219 -194q46 -66 67 -143q23 -80 23 -172v-35q0 -17 -2 -23zM563 659l228 -2q-5 63 -31 91q-28 30 -82 30q-46 0 -78 -30q-28 -33 -37 -89zM905 1389h-2q-21 -100 -57 -146q-36 -45 -101 -45h-24q-5 0 -27 4l-67 19q-11 2 -27 2h-18q-25 0 -39 -13
q-16 -11 -25 -41h-88q17 89 55 138q38 43 99 43h30q11 0 35 -4l70 -19h18h19q21 0 39 16q17 18 22 46h88z" />
    <glyph glyph-name="ebhoasac" unicode="&#x1ebe;" horiz-adv-x="1204" 
d="M137 0v1464h979v-397h-463v-141h420v-375h-420v-154h475v-397h-991zM362 1536l146 262h219l145 -262h-122l-132 127l-133 -127h-123zM1206 1989l-233 -263h-123l135 263h221z" />
    <glyph glyph-name="ebthsac" unicode="&#x1ebf;" horiz-adv-x="1321" 
d="M1272 434h-713v-16q0 -76 29 -117q26 -39 86 -39q36 0 61 21q26 19 41 59l465 -31q-61 -167 -211 -260q-149 -90 -364 -90q-120 0 -224 37q-111 40 -188 106q-94 83 -143 187q-50 108 -50 223q0 120 52 225q23 53 57 97t84 88q85 73 186 106q104 37 226 37q81 0 158 -17
t141 -49q127 -65 219 -194q46 -66 67 -143q23 -80 23 -172v-35q0 -17 -2 -23zM563 659l228 -2q-5 63 -31 91q-28 30 -82 30q-46 0 -78 -30q-28 -33 -37 -89zM391 1128l146 263h219l145 -263h-123l-131 127l-133 -127h-123zM1235 1581l-234 -262h-122l135 262h221z" />
    <glyph glyph-name="ebhoahuyen" unicode="&#x1ec0;" horiz-adv-x="1204" 
d="M137 0v1464h979v-397h-463v-141h420v-375h-420v-154h475v-397h-991zM362 1536l146 262h219l145 -262h-122l-132 127l-133 -127h-123zM612 2050h222l135 -262h-123z" />
    <glyph glyph-name="ebthhuyen" unicode="&#x1ec1;" horiz-adv-x="1321" 
d="M1272 434h-713v-16q0 -76 29 -117q26 -39 86 -39q36 0 61 21q26 19 41 59l465 -31q-61 -167 -211 -260q-149 -90 -364 -90q-120 0 -224 37q-111 40 -188 106q-94 83 -143 187q-50 108 -50 223q0 120 52 225q23 53 57 97t84 88q85 73 186 106q104 37 226 37q81 0 158 -17
t141 -49q127 -65 219 -194q46 -66 67 -143q23 -80 23 -172v-35q0 -17 -2 -23zM563 659l228 -2q-5 63 -31 91q-28 30 -82 30q-46 0 -78 -30q-28 -33 -37 -89zM391 1128l146 263h219l145 -263h-123l-131 127l-133 -127h-123zM641 1642h221l135 -262h-123z" />
    <glyph glyph-name="ebhoahoi" unicode="&#x1ec2;" horiz-adv-x="1204" 
d="M137 0v1464h979v-397h-463v-141h420v-375h-420v-154h475v-397h-991zM362 1536l146 262h219l145 -262h-122l-132 127l-133 -127h-123zM844 1706v141h18h12q27 0 37 11q11 7 11 30q0 17 -2 21q-5 4 -19 4q-15 0 -18 -6q-4 -8 -4 -29h-181q3 82 58 131t145 49q94 0 148 -51
q55 -53 55 -135q0 -74 -55 -121q-54 -45 -148 -45h-27h-30z" />
    <glyph glyph-name="ebthhoi" unicode="&#x1ec3;" horiz-adv-x="1321" 
d="M1272 434h-713v-16q0 -76 29 -117q26 -39 86 -39q36 0 61 21q26 19 41 59l465 -31q-61 -167 -211 -260q-149 -90 -364 -90q-120 0 -224 37q-111 40 -188 106q-94 83 -143 187q-50 108 -50 223q0 120 52 225q23 53 57 97t84 88q85 73 186 106q104 37 226 37q81 0 158 -17
t141 -49q127 -65 219 -194q46 -66 67 -143q23 -80 23 -172v-35q0 -17 -2 -23zM563 659l228 -2q-5 63 -31 91q-28 30 -82 30q-46 0 -78 -30q-28 -33 -37 -89zM391 1128l146 263h219l145 -263h-123l-131 127l-133 -127h-123zM872 1298v142h19h12q27 0 37 10q10 7 10 31
q0 16 -2 20q-4 4 -18 4q-16 0 -19 -6q-4 -8 -4 -29h-180q3 82 57 132q57 49 146 49q92 0 147 -52q56 -51 56 -135q0 -74 -56 -121q-55 -45 -147 -45h-27h-31z" />
    <glyph glyph-name="ebhoanga" unicode="&#x1ec4;" horiz-adv-x="1204" 
d="M137 0v1464h979v-397h-463v-141h420v-375h-420v-154h475v-397h-991zM362 1536l146 262h219l145 -262h-122l-132 127l-133 -127h-123zM862 2089h-2q-21 -100 -57.5 -145.5t-100.5 -45.5h-24q-4 0 -15.5 2.5l-11.5 2.5l-67 18q-11 2 -27 2h-18q-24 0 -39 -12
q-15 -11 -25 -41h-88q17 88 55 137q37 43 99 43h30q11 0 35 -4l70 -18h18h19q21 0 39 16q17 17 22 45h88z" />
    <glyph glyph-name="ebthnga" unicode="&#x1ec5;" horiz-adv-x="1321" 
d="M1272 434h-713v-16q0 -76 29 -117q26 -39 86 -39q36 0 61 21q26 19 41 59l465 -31q-61 -167 -211 -260q-149 -90 -364 -90q-120 0 -224 37q-111 40 -188 106q-94 83 -143 187q-50 108 -50 223q0 120 52 225q23 53 57 97t84 88q85 73 186 106q104 37 226 37q81 0 158 -17
t141 -49q127 -65 219 -194q46 -66 67 -143q23 -80 23 -172v-35q0 -17 -2 -23zM563 659l228 -2q-5 63 -31 91q-28 30 -82 30q-46 0 -78 -30q-28 -33 -37 -89zM391 1128l146 263h219l145 -263h-123l-131 127l-133 -127h-123zM891 1681h-2q-24 -102 -58 -145q-35 -45 -100 -45
h-24q-7 0 -27 4l-68 18q-10 3 -26 3h-19q-21 0 -39 -13q-15 -12 -24 -41h-88q18 92 55 137q37 43 98 43h31q11 0 35 -4l70 -18h18h18q23 0 39 16q17 17 23 45h88z" />
    <glyph glyph-name="ebhoanang" unicode="&#x1ec6;" horiz-adv-x="1204" 
d="M137 0v1464h979v-397h-463v-141h420v-375h-420v-154h475v-397h-991zM362 1536l146 262h219l145 -262h-122l-132 127l-133 -127h-123zM717 -254q0 -58 -37 -88q-39 -31 -100 -31q-62 0 -101 31q-37 31 -37 88t37 88q35 29 101 29q65 0 100 -29q37 -30 37 -88z" />
    <glyph glyph-name="ebthnang" unicode="&#x1ec7;" horiz-adv-x="1321" 
d="M1272 434h-713v-16q0 -76 29 -117q26 -39 86 -39q36 0 61 21q26 19 41 59l465 -31q-61 -167 -211 -260q-149 -90 -364 -90q-120 0 -224 37q-111 40 -188 106q-94 83 -143 187q-50 108 -50 223q0 120 52 225q23 53 57 97t84 88q85 73 186 106q104 37 226 37q81 0 158 -17
t141 -49q127 -65 219 -194q46 -66 67 -143q23 -80 23 -172v-35q0 -17 -2 -23zM563 659l228 -2q-5 63 -31 91q-28 30 -82 30q-46 0 -78 -30q-28 -33 -37 -89zM391 1128l146 263h219l145 -263h-123l-131 127l-133 -127h-123zM766 -262q0 -58 -37 -88q-35 -31 -100 -31
q-64 0 -101 31q-36 30 -36 88q0 56 36 88q36 29 101 29t100 -29q37 -31 37 -88z" />
    <glyph glyph-name="ihoahoi" unicode="&#x1ec8;" horiz-adv-x="829" 
d="M147 0v1464h535v-1464h-535zM356 1567v141h19h12q27 0 37 10q10 7 10 31q0 16 -2 20q-4 5 -18 5q-16 0 -19.5 -7.5t-3.5 -27.5h-180q3 83 57 131q55 49 146 49q93 0 147 -51q55 -52 55 -135q0 -76 -55 -121q-54 -45 -147 -45h-27h-31z" />
    <glyph glyph-name="ithhoi" unicode="&#x1ec9;" horiz-adv-x="739" 
d="M119 -4v1034h502v-1034h-502zM328 1151v141h18h12q27 0 37 11q11 8 11 30q0 17 -3.5 21t-17.5 4q-15 0 -18 -6q-5 -10 -5 -29h-180q3 82 58 131q53 49 145 49q95 0 147 -51q56 -53 56 -135q0 -74 -56 -121q-52 -45 -147 -45h-27h-30z" />
    <glyph glyph-name="ihoanang" unicode="&#x1eca;" horiz-adv-x="829" 
d="M147 0v1464h535v-1464h-535zM526 -254q0 -58 -37 -88.5t-100 -30.5t-100 30.5t-37 88.5t37 88q33 29 100 29t100 -29q37 -30 37 -88z" />
    <glyph glyph-name="ithnang" unicode="&#x1ecb;" horiz-adv-x="739" 
d="M119 -4v1034h502v-1034h-502zM508 1290q0 -57 -37 -88q-39 -31 -100 -31q-62 0 -101 31q-37 32 -37 88q0 57 37 88q35 29 101 29q65 0 100 -29q37 -30 37 -88zM487 -268q0 -58 -36.5 -88.5t-100.5 -30.5q-65 0 -100 31q-37 30 -37 88q0 57 37 88q34 28 100 28t101 -28
q36 -31 36 -88z" />
    <glyph glyph-name="ohoanang" unicode="&#x1ecc;" horiz-adv-x="1735" 
d="M868 453q111 0 179 75q67 77 67 201q0 127 -67 203q-69 76 -179 76t-180 -76q-67 -76 -67 -203q0 -124 67 -201q69 -75 180 -75zM1651 729q0 -162 -58 -299q-60 -142 -166 -248q-108 -105 -253 -164q-145 -57 -306 -57q-163 0 -307 57q-140 57 -254 166
q-110 111 -166 244q-55 137 -55 301t55 301q58 136 166 246q110 107 252 166q143 55 309 55q164 0 308 -55q143 -58 254 -166q106 -108 165 -246q56 -139 56 -301zM991 -262q0 -58 -37 -88q-35 -31 -100 -31t-100 31q-37 30 -37 88q0 57 37 88q35 29 100 29t100 -29
q37 -31 37 -88z" />
    <glyph glyph-name="othnang" unicode="&#x1ecd;" horiz-adv-x="1331" 
d="M666 373q55 0 88 39q34 40 34 102q0 64 -32 102q-33 39 -90 39q-56 0 -88 -39q-35 -40 -35 -102t35 -102q32 -39 88 -39zM1270 514q0 -114 -49 -223q-52 -107 -144 -187q-79 -67 -184 -106q-107 -37 -227 -37q-122 0 -226 37q-101 33 -186 106q-93 79 -141 187
q-52 105 -52 223q0 120 52 225q23 53 57 97t84 88q85 73 186 106q104 37 226 37q120 0 226.5 -37t186.5 -106q90 -78 142 -185q49 -109 49 -225zM799 -262q0 -57 -37 -88t-100 -31q-64 0 -101 31t-37 88q0 56 37 88q36 29 101 29q64 0 100 -29q37 -32 37 -88z" />
    <glyph glyph-name="ohoahoi" unicode="&#x1ece;" horiz-adv-x="1735" 
d="M868 453q111 0 179 75q67 77 67 201q0 127 -67 203q-69 76 -179 76t-180 -76q-67 -76 -67 -203q0 -124 67 -201q69 -75 180 -75zM1651 729q0 -162 -58 -299q-60 -142 -166 -248q-108 -105 -253 -164q-145 -57 -306 -57q-163 0 -307 57q-140 57 -254 166
q-110 111 -166 244q-55 137 -55 301t55 301q58 136 166 246q110 107 252 166q143 55 309 55q164 0 308 -55q143 -58 254 -166q106 -108 165 -246q56 -139 56 -301zM811 1599v142h18h13q26 0 37 10q10 7 10 31q0 16 -2 20q-4 4 -19 4t-18 -6q-4 -8 -4 -28h-180q3 83 57 131
q57 49 145 49q92 0 147.5 -51.5t55.5 -135.5q0 -75 -55 -120.5t-148 -45.5h-26h-31z" />
    <glyph glyph-name="othhoi" unicode="&#x1ecf;" horiz-adv-x="1331" 
d="M666 373q55 0 88 39q34 40 34 102q0 64 -32 102q-33 39 -90 39q-56 0 -88 -39q-35 -40 -35 -102t35 -102q32 -39 88 -39zM1270 514q0 -114 -49 -223q-52 -107 -144 -187q-79 -67 -184 -106q-107 -37 -227 -37q-122 0 -226 37q-101 33 -186 106q-93 79 -141 187
q-52 105 -52 223q0 120 52 225q23 53 57 97t84 88q85 73 186 106q104 37 226 37q120 0 226.5 -37t186.5 -106q90 -78 142 -185q49 -109 49 -225zM608 1169v142h19h12q27 0 37 10q10 7 10 31q0 16 -2 20q-4 4 -18 4q-16 0 -19 -6q-4 -8 -4 -29h-180q3 84 57 132q57 49 146 49
q92 0 147 -52q55 -51 55 -135q0 -75 -55 -121q-55 -45 -147 -45h-27h-31z" />
    <glyph glyph-name="obhoasac" unicode="&#x1ed0;" horiz-adv-x="1735" 
d="M868 453q111 0 179 75q67 77 67 201q0 127 -67 203q-69 76 -179 76t-180 -76q-67 -76 -67 -203q0 -124 67 -201q69 -75 180 -75zM1651 729q0 -162 -58 -299q-60 -142 -166 -248q-108 -105 -253 -164q-145 -57 -306 -57q-163 0 -307 57q-140 57 -254 166
q-110 111 -166 244q-55 137 -55 301t55 301q58 136 166 246q110 107 252 166q143 55 309 55q164 0 308 -55q143 -58 254 -166q106 -108 165 -246q56 -139 56 -301zM596 1548l145 262h220l145 -262h-123l-131 127l-133 -127h-123zM1440 2001l-234 -262h-123l136 262h221z" />
    <glyph glyph-name="obthsac" unicode="&#x1ed1;" horiz-adv-x="1331" 
d="M666 373q55 0 88 39q34 40 34 102q0 64 -32 102q-33 39 -90 39q-56 0 -88 -39q-35 -40 -35 -102t35 -102q32 -39 88 -39zM1270 514q0 -114 -49 -223q-52 -107 -144 -187q-79 -67 -184 -106q-107 -37 -227 -37q-122 0 -226 37q-101 33 -186 106q-93 79 -141 187
q-52 105 -52 223q0 120 52 225q23 53 57 97t84 88q85 73 186 106q104 37 226 37q120 0 226.5 -37t186.5 -106q90 -78 142 -185q49 -109 49 -225zM389 1128l146 263h219l145 -263h-123l-131 127l-133 -127h-123zM1233 1581l-234 -262h-122l135 262h221z" />
    <glyph glyph-name="obhoahuyen" unicode="&#x1ed2;" horiz-adv-x="1735" 
d="M868 453q111 0 179 75q67 77 67 201q0 127 -67 203q-69 76 -179 76t-180 -76q-67 -76 -67 -203q0 -124 67 -201q69 -75 180 -75zM1651 729q0 -162 -58 -299q-60 -142 -166 -248q-108 -105 -253 -164q-145 -57 -306 -57q-163 0 -307 57q-140 57 -254 166
q-110 111 -166 244q-55 137 -55 301t55 301q58 136 166 246q110 107 252 166q143 55 309 55q164 0 308 -55q143 -58 254 -166q106 -108 165 -246q56 -139 56 -301zM596 1548l145 262h220l145 -262h-123l-131 127l-133 -127h-123zM846 2062h221l135 -262h-123z" />
    <glyph glyph-name="obthhuyen" unicode="&#x1ed3;" horiz-adv-x="1331" 
d="M666 373q55 0 88 39q34 40 34 102q0 64 -32 102q-33 39 -90 39q-56 0 -88 -39q-35 -40 -35 -102t35 -102q32 -39 88 -39zM1270 514q0 -114 -49 -223q-52 -107 -144 -187q-79 -67 -184 -106q-107 -37 -227 -37q-122 0 -226 37q-101 33 -186 106q-93 79 -141 187
q-52 105 -52 223q0 120 52 225q23 53 57 97t84 88q85 73 186 106q104 37 226 37q120 0 226.5 -37t186.5 -106q90 -78 142 -185q49 -109 49 -225zM389 1128l146 263h219l145 -263h-123l-131 127l-133 -127h-123zM639 1642h221l135 -262h-123z" />
    <glyph glyph-name="obhoahoi" unicode="&#x1ed4;" horiz-adv-x="1735" 
d="M868 453q111 0 179 75q67 77 67 201q0 127 -67 203q-69 76 -179 76t-180 -76q-67 -76 -67 -203q0 -124 67 -201q69 -75 180 -75zM1651 729q0 -162 -58 -299q-60 -142 -166 -248q-108 -105 -253 -164q-145 -57 -306 -57q-163 0 -307 57q-140 57 -254 166
q-110 111 -166 244q-55 137 -55 301t55 301q58 136 166 246q110 107 252 166q143 55 309 55q164 0 308 -55q143 -58 254 -166q106 -108 165 -246q56 -139 56 -301zM596 1548l145 262h220l145 -262h-123l-131 127l-133 -127h-123zM1077 1718v142h19h12q27 0 37 10q10 7 10 31
q0 16 -2 20q-4 4 -18 4q-16 0 -19 -6q-4 -8 -4 -29h-180q3 84 57 131q56 50 146 50q92 0 147 -52q55 -51 55 -135q0 -75 -55 -121q-55 -45 -147 -45h-27h-31z" />
    <glyph glyph-name="obthhoi" unicode="&#x1ed5;" horiz-adv-x="1331" 
d="M666 373q55 0 88 39q34 40 34 102q0 64 -32 102q-33 39 -90 39q-56 0 -88 -39q-35 -40 -35 -102t35 -102q32 -39 88 -39zM1270 514q0 -114 -49 -223q-52 -107 -144 -187q-79 -67 -184 -106q-107 -37 -227 -37q-122 0 -226 37q-101 33 -186 106q-93 79 -141 187
q-52 105 -52 223q0 120 52 225q23 53 57 97t84 88q85 73 186 106q104 37 226 37q120 0 226.5 -37t186.5 -106q90 -78 142 -185q49 -109 49 -225zM389 1128l146 263h219l145 -263h-123l-131 127l-133 -127h-123zM870 1298v142h19h12q27 0 37 10q10 7 10 31q0 16 -2 20
q-4 4 -18 4q-16 0 -19 -6q-4 -8 -4 -29h-180q3 84 57 132q57 49 146 49q92 0 147 -52q55 -51 55 -135q0 -75 -55 -121q-55 -45 -147 -45h-27h-31z" />
    <glyph glyph-name="obhoanga" unicode="&#x1ed6;" horiz-adv-x="1735" 
d="M868 453q111 0 179 75q67 77 67 201q0 127 -67 203q-69 76 -179 76t-180 -76q-67 -76 -67 -203q0 -124 67 -201q69 -75 180 -75zM1651 729q0 -162 -58 -299q-60 -142 -166 -248q-108 -105 -253 -164q-145 -57 -306 -57q-163 0 -307 57q-140 57 -254 166
q-110 111 -166 244q-55 137 -55 301t55 301q58 136 166 246q110 107 252 166q143 55 309 55q164 0 308 -55q143 -58 254 -166q106 -108 165 -246q56 -139 56 -301zM596 1548l145 262h220l145 -262h-123l-131 127l-133 -127h-123zM1096 2101h-2q-24 -102 -58 -145
q-35 -45 -100 -45h-25q-6 0 -26 4l-68 18q-10 2 -26 2h-19q-24 0 -39 -12t-24 -41h-88q18 92 55 137q36 43 98 43h31q9 0 35 -4l69 -18h19h18q23 0 39 16q17 17 23 45h88z" />
    <glyph glyph-name="obthnga" unicode="&#x1ed7;" horiz-adv-x="1331" 
d="M666 373q55 0 88 39q34 40 34 102q0 64 -32 102q-33 39 -90 39q-56 0 -88 -39q-35 -40 -35 -102t35 -102q32 -39 88 -39zM1270 514q0 -114 -49 -223q-52 -107 -144 -187q-79 -67 -184 -106q-107 -37 -227 -37q-122 0 -226 37q-101 33 -186 106q-93 79 -141 187
q-52 105 -52 223q0 120 52 225q23 53 57 97t84 88q85 73 186 106q104 37 226 37q120 0 226.5 -37t186.5 -106q90 -78 142 -185q49 -109 49 -225zM389 1128l146 263h219l145 -263h-123l-131 127l-133 -127h-123zM889 1681h-2q-24 -102 -58 -145q-35 -45 -100 -45h-24
q-7 0 -27 4l-68 18q-10 3 -26 3h-19q-21 0 -39 -13q-15 -12 -24 -41h-88q18 92 55 137q37 43 98 43h31q11 0 35 -4l69 -18h19h18q23 0 39 16q18 20 23 45h88z" />
    <glyph glyph-name="obhoanang" unicode="&#x1ed8;" horiz-adv-x="1735" 
d="M868 453q111 0 179 75q67 77 67 201q0 127 -67 203q-69 76 -179 76t-180 -76q-67 -76 -67 -203q0 -124 67 -201q69 -75 180 -75zM1651 729q0 -162 -58 -299q-60 -142 -166 -248q-108 -105 -253 -164q-145 -57 -306 -57q-163 0 -307 57q-140 57 -254 166
q-110 111 -166 244q-55 137 -55 301t55 301q58 136 166 246q110 107 252 166q143 55 309 55q164 0 308 -55q143 -58 254 -166q106 -108 165 -246q56 -139 56 -301zM596 1548l145 262h220l145 -262h-123l-131 127l-133 -127h-123zM1012 -252q0 -56 -37 -88q-39 -31 -101 -31
q-61 0 -100 31q-37 32 -37 88q0 57 37 88q35 29 100 29q66 0 101 -29q37 -31 37 -88z" />
    <glyph glyph-name="obthnang" unicode="&#x1ed9;" horiz-adv-x="1331" 
d="M666 373q55 0 88 39q34 40 34 102q0 64 -32 102q-33 39 -90 39q-56 0 -88 -39q-35 -40 -35 -102t35 -102q32 -39 88 -39zM1270 514q0 -114 -49 -223q-52 -107 -144 -187q-79 -67 -184 -106q-107 -37 -227 -37q-122 0 -226 37q-101 33 -186 106q-93 79 -141 187
q-52 105 -52 223q0 120 52 225q23 53 57 97t84 88q85 73 186 106q104 37 226 37q120 0 226.5 -37t186.5 -106q90 -78 142 -185q49 -109 49 -225zM389 1128l146 263h219l145 -263h-123l-131 127l-133 -127h-123zM795 -252q0 -56 -37 -88q-39 -31 -101 -31q-61 0 -100 31
q-37 31 -37 88q0 58 37 88q35 29 100 29q66 0 101 -29q37 -31 37 -88z" />
    <glyph glyph-name="ochoasac" unicode="&#x1eda;" horiz-adv-x="1735" 
d="M868 453q111 0 179 75q67 77 67 201q0 127 -67 203q-69 76 -179 76t-180 -76q-67 -76 -67 -203q0 -124 67 -201q69 -75 180 -75zM1651 729v2q0 -162 -58 -299q-60 -142 -166 -248q-108 -105 -253 -164q-145 -57 -306 -57q-163 0 -307 57q-140 57 -254 166
q-110 111 -166 244q-55 137 -55 301t55 301q58 136 166 246q110 107 252 166q143 55 309 55q164 0 308 -55q143 -58 254 -166q57 -52 94 -115q42 4 62 44t26 107.5t6 176.5h160q0 -159 -22 -247.5t-66.5 -127.5t-116.5 -47q78 -152 78 -340zM1163 1864l-233 -262h-123
l135 262h221z" />
    <glyph glyph-name="octhsac" unicode="&#x1edb;" horiz-adv-x="1372" 
d="M666 373q55 0 88 39q34 40 34 102q0 64 -32 102q-33 39 -90 39q-56 0 -88 -39q-35 -40 -35 -102t35 -102q32 -39 88 -39zM1270 514v6q0 -113 -49 -223q-52 -108 -144 -186q-78 -68 -184 -107q-111 -37 -227 -37q-118 0 -226 37q-105 36 -186 107q-93 78 -141 186
q-52 107 -52 223q0 120 52 225q47 107 141 185q85 73 186 106q104 37 226 37q120 0 226.5 -37t186.5 -106q89 -75 142 -185q38 16 54.5 67t16.5 161q0 57 -2 92l156 2q-8 -205 -56 -288t-141 -113q21 -46 21 -152zM889 1438l-234 -262h-123l136 262h221z" />
    <glyph glyph-name="ochoahuyen" unicode="&#x1edc;" horiz-adv-x="1735" 
d="M868 453q111 0 179 75q67 77 67 201q0 127 -67 203q-69 76 -179 76t-180 -76q-67 -76 -67 -203q0 -124 67 -201q69 -75 180 -75zM1651 729v2q0 -162 -58 -299q-60 -142 -166 -248q-108 -105 -253 -164q-145 -57 -306 -57q-163 0 -307 57q-140 57 -254 166
q-110 111 -166 244q-55 137 -55 301t55 301q58 136 166 246q110 107 252 166q143 55 309 55q164 0 308 -55q143 -58 254 -166q57 -52 94 -115q42 4 62 44t26 107.5t6 176.5h160q0 -159 -22 -247.5t-66.5 -127.5t-116.5 -47q78 -152 78 -340zM641 1864h221l135 -262h-123z
" />
    <glyph glyph-name="octhhuyen" unicode="&#x1edd;" horiz-adv-x="1372" 
d="M666 373q55 0 88 39q34 40 34 102q0 64 -32 102q-33 39 -90 39q-56 0 -88 -39q-35 -40 -35 -102t35 -102q32 -39 88 -39zM1270 514v6q0 -113 -49 -223q-52 -108 -144 -186q-78 -68 -184 -107q-111 -37 -227 -37q-118 0 -226 37q-105 36 -186 107q-93 78 -141 186
q-52 107 -52 223q0 120 52 225q47 107 141 185q85 73 186 106q104 37 226 37q120 0 226.5 -37t186.5 -106q89 -75 142 -185q38 16 54.5 67t16.5 161q0 57 -2 92l156 2q-8 -205 -56 -288t-141 -113q21 -46 21 -152zM459 1438h221l135 -262h-123z" />
    <glyph glyph-name="ochoahoi" unicode="&#x1ede;" horiz-adv-x="1735" 
d="M868 453q111 0 179 75q67 77 67 201q0 127 -67 203q-69 76 -179 76t-180 -76q-67 -76 -67 -203q0 -124 67 -201q69 -75 180 -75zM1651 729v2q0 -162 -58 -299q-60 -142 -166 -248q-108 -105 -253 -164q-145 -57 -306 -57q-163 0 -307 57q-140 57 -254 166
q-110 111 -166 244q-55 137 -55 301t55 301q58 136 166 246q110 107 252 166q143 55 309 55q164 0 308 -55q143 -58 254 -166q57 -52 94 -115q42 4 62 44t26 107.5t6 176.5h160q0 -159 -22 -247.5t-66.5 -127.5t-116.5 -47q78 -152 78 -340zM811 1602v141h18h13q26 0 37 10
q10 7 10 31q0 16 -2 20q-4 4 -19 4t-18 -6q-4 -8 -4 -28h-180q3 83 57 131q57 49 145 49q92 0 147.5 -51.5t55.5 -135.5q0 -75 -55 -120q-54 -45 -148 -45h-26h-31z" />
    <glyph glyph-name="octhhoi" unicode="&#x1edf;" horiz-adv-x="1372" 
d="M666 373q55 0 88 39q34 40 34 102q0 64 -32 102q-33 39 -90 39q-56 0 -88 -39q-35 -40 -35 -102t35 -102q32 -39 88 -39zM1270 514v6q0 -113 -49 -223q-52 -108 -144 -186q-78 -68 -184 -107q-111 -37 -227 -37q-118 0 -226 37q-105 36 -186 107q-93 78 -141 186
q-52 107 -52 223q0 120 52 225q47 107 141 185q85 73 186 106q104 37 226 37q120 0 226.5 -37t186.5 -106q89 -75 142 -185q38 16 54.5 67t16.5 161q0 57 -2 92l156 2q-8 -205 -56 -288t-141 -113q21 -46 21 -152zM608 1176v141h19h12q27 0 37 10q10 7 10 31q0 16 -2 20
q-4 4 -18 4q-16 0 -19 -6q-4 -8 -4 -28h-180q3 83 57 131q57 49 146 49q91 0 146.5 -51.5t55.5 -135.5q0 -75 -55 -120q-54 -45 -147 -45h-27h-31z" />
    <glyph glyph-name="ochoanga" unicode="&#x1ee0;" horiz-adv-x="1735" 
d="M868 453q111 0 179 75q67 77 67 201q0 127 -67 203q-69 76 -179 76t-180 -76q-67 -76 -67 -203q0 -124 67 -201q69 -75 180 -75zM1651 729v2q0 -162 -58 -299q-60 -142 -166 -248q-108 -105 -253 -164q-145 -57 -306 -57q-163 0 -307 57q-140 57 -254 166
q-110 111 -166 244q-55 137 -55 301t55 301q58 136 166 246q110 107 252 166q143 55 309 55q164 0 308 -55q143 -58 254 -166q57 -52 94 -115q42 4 62 44t26 107.5t6 176.5h160q0 -159 -22 -247.5t-66.5 -127.5t-116.5 -47q78 -152 78 -340zM1106 1821h-2q-21 -100 -57 -146
q-37 -45 -101 -45h-24q-7 0 -27 4l-68 19q-10 2 -26 2h-19q-23 0 -39 -13q-15 -12 -24 -40h-88q17 88 55 137q38 43 98 43h31q11 0 35 -4l70 -19h18h18q24 0 39 17q17 16 23 45h88z" />
    <glyph glyph-name="octhnga" unicode="&#x1ee1;" horiz-adv-x="1372" 
d="M666 373q55 0 88 39q34 40 34 102q0 64 -32 102q-33 39 -90 39q-56 0 -88 -39q-35 -40 -35 -102t35 -102q32 -39 88 -39zM1270 514v6q0 -113 -49 -223q-52 -108 -144 -186q-78 -68 -184 -107q-111 -37 -227 -37q-118 0 -226 37q-105 36 -186 107q-93 78 -141 186
q-52 107 -52 223q0 120 52 225q47 107 141 185q85 73 186 106q104 37 226 37q120 0 226.5 -37t186.5 -106q89 -75 142 -185q38 16 54.5 67t16.5 161q0 57 -2 92l156 2q-8 -205 -56 -288t-141 -113q21 -46 21 -152zM903 1395h-2q-21 -100 -57 -146q-37 -45 -101 -45h-24
q-7 0 -27 4l-67 19q-11 2 -27 2h-18q-24 0 -39.5 -12.5t-24.5 -40.5h-88q17 88 55 137q38 43 99 43h30q11 0 35 -4l70 -19h18h19q22 0 39 17t22 45h88z" />
    <glyph glyph-name="ochoanang" unicode="&#x1ee2;" horiz-adv-x="1735" 
d="M868 453q111 0 179 75q67 77 67 201q0 127 -67 203q-69 76 -179 76t-180 -76q-67 -76 -67 -203q0 -124 67 -201q69 -75 180 -75zM1651 729v2q0 -162 -58 -299q-60 -142 -166 -248q-108 -105 -253 -164q-145 -57 -306 -57q-163 0 -307 57q-140 57 -254 166
q-110 111 -166 244q-55 137 -55 301t55 301q58 136 166 246q110 107 252 166q143 55 309 55q164 0 308 -55q143 -58 254 -166q57 -52 94 -115q42 4 62 44t26 107.5t6 176.5h160q0 -159 -22 -247.5t-66.5 -127.5t-116.5 -47q78 -152 78 -340zM991 -260q0 -58 -37 -88
q-35 -31 -100 -31t-100 31q-37 30 -37 88q0 57 37 88q35 29 100 29t100 -29q37 -31 37 -88z" />
    <glyph glyph-name="octhnang" unicode="&#x1ee3;" horiz-adv-x="1372" 
d="M666 373q55 0 88 39q34 40 34 102q0 64 -32 102q-33 39 -90 39q-56 0 -88 -39q-35 -40 -35 -102t35 -102q32 -39 88 -39zM1270 514v6q0 -113 -49 -223q-52 -108 -144 -186q-78 -68 -184 -107q-111 -37 -227 -37q-118 0 -226 37q-105 36 -186 107q-93 78 -141 186
q-52 107 -52 223q0 120 52 225q47 107 141 185q85 73 186 106q104 37 226 37q120 0 226.5 -37t186.5 -106q89 -75 142 -185q38 16 54.5 67t16.5 161q0 57 -2 92l156 2q-8 -205 -56 -288t-141 -113q21 -46 21 -152zM799 -256q0 -57 -37 -88t-100 -31q-64 0 -101 31t-37 88
t37 88q35 29 101 29q65 0 100 -29q37 -31 37 -88z" />
    <glyph glyph-name="uhoanang" unicode="&#x1ee4;" horiz-adv-x="1602" 
d="M121 670v794h526v-798q0 -141 33 -191q33 -53 113 -53q79 0 112 53q35 56 35 191v798h526v-794q0 -160 -20 -256q-22 -106 -66 -170q-89 -138 -239 -209q-156 -74 -348 -74q-193 0 -349 74q-150 71 -239 209q-41 64 -64 168q-20 96 -20 258zM956 -262q0 -58 -36.5 -88.5
t-100.5 -30.5q-65 0 -100 31q-37 30 -37 88q0 57 37 88q35 29 100 29t101 -29q36 -31 36 -88z" />
    <glyph glyph-name="uthnang" unicode="&#x1ee5;" horiz-adv-x="1339" 
d="M94 1034h494v-506q0 -106 18 -141q15 -31 64 -31q44 0 63 29q17 36 17 143v506h493v-557q0 -269 -137 -391q-137 -125 -436 -125t-437.5 124.5t-138.5 391.5v557zM821 -272q0 -58 -37 -88q-35 -31 -100 -31t-100 31q-37 30 -37 88q0 57 37 88q34 28 100 28t100 -28
q37 -31 37 -88z" />
    <glyph glyph-name="uhoahoi" unicode="&#x1ee6;" horiz-adv-x="1602" 
d="M121 670v794h526v-798q0 -141 33 -191q33 -53 113 -53q79 0 112 53q35 56 35 191v798h526v-794q0 -160 -20 -256q-22 -106 -66 -170q-89 -138 -239 -209q-156 -74 -348 -74q-193 0 -349 74q-150 71 -239 209q-41 64 -64 168q-20 96 -20 258zM735 1567v141h19h12
q27 0 37 10q10 7 10 31q0 16 -2 20q-4 5 -18 5q-16 0 -19.5 -7.5t-3.5 -27.5h-180q3 83 57 131q55 49 146 49q93 0 147 -51q55 -52 55 -135q0 -76 -55 -121q-54 -45 -147 -45h-27h-31z" />
    <glyph glyph-name="uthhoi" unicode="&#x1ee7;" horiz-adv-x="1339" 
d="M94 1034h494v-506q0 -106 18 -141q15 -31 64 -31q44 0 63 29q17 36 17 143v506h493v-557q0 -269 -137 -391q-137 -125 -436 -125t-437.5 124.5t-138.5 391.5v557zM610 1137v141h19h12q27 0 37 10q10 7 10 31q0 16 -2 20q-4 4 -18 4q-16 0 -19 -6q-4 -8 -4 -28h-180
q3 83 57 131q55 49 146 49q93 0 147 -51q55 -52 55 -135q0 -76 -55 -121q-54 -45 -147 -45h-27h-31z" />
    <glyph glyph-name="uchoasac" unicode="&#x1ee8;" horiz-adv-x="1602" 
d="M121 670v792h526v-798q0 -141 33 -191q33 -53 113 -53q79 0 112 53q35 56 35 191v798h526v-327q52 21 71 96.5t19 226.5h160q-6 -161 -35 -248t-80.5 -124t-134.5 -50v-366q0 -160 -20 -256q-22 -106 -66 -170q-89 -138 -239 -209q-156 -74 -348 -74q-193 0 -349 74
q-150 71 -239 209q-41 64 -64 168q-20 96 -20 258zM1087 1827l-233 -262h-123l135 262h221z" />
    <glyph glyph-name="ucthsac" unicode="&#x1ee9;" horiz-adv-x="1393" 
d="M94 1034h494v-506q0 -106 18 -141q15 -31 64 -31q44 0 63 29q17 36 17 143v506h493v-321q51 18 70.5 93t19.5 226h160q-6 -158 -35 -244.5t-80 -123.5t-135 -50v-137q0 -269 -137 -391q-137 -125 -436 -125t-437.5 124.5t-138.5 391.5v557zM963 1399l-234 -262h-123
l135 262h222z" />
    <glyph glyph-name="uchoahuyen" unicode="&#x1eea;" horiz-adv-x="1602" 
d="M121 670v792h526v-798q0 -141 33 -191q33 -53 113 -53q79 0 112 53q35 56 35 191v798h526v-327q52 21 71 96.5t19 226.5h160q-6 -161 -35 -248t-80.5 -124t-134.5 -50v-366q0 -160 -20 -256q-22 -106 -66 -170q-89 -138 -239 -209q-156 -74 -348 -74q-193 0 -349 74
q-150 71 -239 209q-41 64 -64 168q-20 96 -20 258zM504 1827h221l135 -262h-123z" />
    <glyph glyph-name="ucthhuyen" unicode="&#x1eeb;" horiz-adv-x="1393" 
d="M94 1034h494v-506q0 -106 18 -141q15 -31 64 -31q44 0 63 29q17 36 17 143v506h493v-321q51 18 70.5 93t19.5 226h160q-6 -158 -35 -244.5t-80 -123.5t-135 -50v-137q0 -269 -137 -391q-137 -125 -436 -125t-437.5 124.5t-138.5 391.5v557zM440 1399h222l135 -262h-123z
" />
    <glyph glyph-name="uchoahoi" unicode="&#x1eec;" horiz-adv-x="1602" 
d="M121 670v792h526v-798q0 -141 33 -191q33 -53 113 -53q79 0 112 53q35 56 35 191v798h526v-327q52 21 71 96.5t19 226.5h160q-6 -161 -35 -248t-80.5 -124t-134.5 -50v-366q0 -160 -20 -256q-22 -106 -66 -170q-89 -138 -239 -209q-156 -74 -348 -74q-193 0 -349 74
q-150 71 -239 209q-41 64 -64 168q-20 96 -20 258zM735 1565v141h19h12q27 0 37 10q10 7 10 31q0 16 -2 20q-4 5 -18 5q-15 0 -19 -7.5t-4 -27.5h-180q3 83 57 131q55 49 146 49q93 0 147 -51q55 -52 55 -135q0 -76 -55 -121q-54 -45 -147 -45h-27h-31z" />
    <glyph glyph-name="ucthhoi" unicode="&#x1eed;" horiz-adv-x="1393" 
d="M94 1034h494v-506q0 -106 18 -141q15 -31 64 -31q44 0 63 29q17 36 17 143v506h493v-321q51 18 70.5 93t19.5 226h160q-6 -158 -35 -244.5t-80 -123.5t-135 -50v-137q0 -269 -137 -391q-137 -125 -436 -125t-437.5 124.5t-138.5 391.5v557zM610 1137v141h19h12
q27 0 37 10q10 7 10 31q0 16 -2 20q-4 4 -18 4q-16 0 -19 -6q-4 -8 -4 -28h-180q3 83 57 131q55 49 146 49q93 0 147 -51q55 -52 55 -135q0 -76 -55 -121q-54 -45 -147 -45h-27h-31z" />
    <glyph glyph-name="uchoanga" unicode="&#x1eee;" horiz-adv-x="1602" 
d="M121 670v792h526v-798q0 -141 33 -191q33 -53 113 -53q79 0 112 53q35 56 35 191v798h526v-327q52 21 71 96.5t19 226.5h160q-6 -161 -35 -248t-80.5 -124t-134.5 -50v-366q0 -160 -20 -256q-22 -106 -66 -170q-89 -138 -239 -209q-156 -74 -348 -74q-193 0 -349 74
q-150 71 -239 209q-41 64 -64 168q-20 96 -20 258zM1030 1784h-2q-21 -100 -57 -146q-37 -45 -101 -45h-24q-7 0 -27 4l-67 19q-11 2 -27 2h-18q-24 0 -39.5 -12.5t-24.5 -40.5h-88q17 88 55 137q37 43 99 43h30q11 0 35 -4l70 -19h18h19q20 0 39 17q17 17 22 45h88z" />
    <glyph glyph-name="ucthnga" unicode="&#x1eef;" horiz-adv-x="1393" 
d="M94 1034h494v-506q0 -106 18 -141q15 -31 64 -31q44 0 63 29q17 36 17 143v506h493v-321q51 18 70.5 93t19.5 226h160q-6 -158 -35 -244.5t-80 -123.5t-135 -50v-137q0 -269 -137 -391q-137 -125 -436 -125t-437.5 124.5t-138.5 391.5v557zM905 1356h-2
q-21 -100 -57 -146q-37 -45 -101 -45h-24q-5 0 -27 4l-67 19q-11 2 -27 2h-18q-24 0 -39.5 -12.5t-24.5 -40.5h-88q17 88 55 137q37 43 99 43h30q11 0 35 -4l70 -19h18h19q22 0 39 17t22 45h88z" />
    <glyph glyph-name="uchoanang" unicode="&#x1ef0;" horiz-adv-x="1602" 
d="M121 670v792h526v-798q0 -141 33 -191q33 -53 113 -53q79 0 112 53q35 56 35 191v798h526v-327q52 21 71 96.5t19 226.5h160q-6 -161 -35 -248t-80.5 -124t-134.5 -50v-366q0 -160 -20 -256q-22 -106 -66 -170q-89 -138 -239 -209q-156 -74 -348 -74q-193 0 -349 74
q-150 71 -239 209q-41 64 -64 168q-20 96 -20 258zM956 -264q0 -58 -36.5 -88.5t-100.5 -30.5q-65 0 -100 31q-37 30 -37 88q0 57 37 88q35 29 100 29t101 -29q36 -31 36 -88z" />
    <glyph glyph-name="ucthnang" unicode="&#x1ef1;" horiz-adv-x="1393" 
d="M94 1034h494v-506q0 -106 18 -141q15 -31 64 -31q44 0 63 29q17 36 17 143v506h493v-321q51 18 70.5 93t19.5 226h160q-6 -158 -35 -244.5t-80 -123.5t-135 -50v-137q0 -269 -137 -391q-137 -125 -436 -125t-437.5 124.5t-138.5 391.5v557zM821 -272q0 -58 -37 -88
q-35 -31 -100 -31t-100 31q-37 30 -37 88q0 57 37 88q34 28 100 28t100 -28q37 -31 37 -88z" />
    <glyph glyph-name="yhoahuyen" unicode="&#x1ef2;" horiz-adv-x="1305" 
d="M375 0v647l-490 817h600l123 -284q26 -64 39 -111q2 -4 2.5 -6t1.5 -4q8 30 37 102q4 8 5.5 12.5t2.5 6.5l121 284h596l-508 -817v-647h-530zM360 1819h222l135 -263h-123z" />
    <glyph glyph-name="ythhuyen" unicode="&#x1ef3;" horiz-adv-x="1300" 
d="M410 90l-449 944h551l78 -264q2 -2 2.5 -4.5t1.5 -5.5q55 -195 63 -281q9 40 17 72.5t16.5 64.5t14.5 56q8 39 26 104l76 258h516l-631 -1456h-534zM424 1419h221l135 -262h-123z" />
    <glyph glyph-name="yhoanang" unicode="&#x1ef4;" horiz-adv-x="1305" 
d="M375 0v647l-490 817h600l123 -284q26 -64 39 -111q2 -4 2.5 -6t1.5 -4q8 30 37 102q4 8 5.5 12.5t2.5 6.5l121 284h596l-508 -817v-647h-530zM782 -254q0 -58 -37 -88.5t-100 -30.5t-100 30.5t-37 88.5t37 88q33 29 100 29t100 -29q37 -30 37 -88z" />
    <glyph glyph-name="ythnang" unicode="&#x1ef5;" horiz-adv-x="1300" 
d="M410 90l-449 944h551l78 -264q2 -2 2.5 -4.5t1.5 -5.5q55 -195 63 -281q9 40 17 72.5t16.5 64.5t14.5 56q8 39 26 104l76 258h516l-631 -1456h-534zM1153 -307q0 -58 -37 -88q-35 -31 -100 -31q-64 0 -101 31q-36 30 -36 88q0 56 36 88q36 29 101 29t100 -29
q37 -31 37 -88z" />
    <glyph glyph-name="yhoahoi" unicode="&#x1ef6;" horiz-adv-x="1305" 
d="M375 0v647l-490 817h600l123 -284q26 -64 39 -111q2 -4 2.5 -6t1.5 -4q8 30 37 102q4 8 5.5 12.5t2.5 6.5l121 284h596l-508 -817v-647h-530zM612 1577v141h19h12q27 0 37 11q10 7 10 30q0 17 -2 21q-4 4 -18 4q-16 0 -19 -6q-4 -8 -4 -29h-180q3 83 57 131q55 49 146 49
q93 0 147 -51q55 -52 55 -135q0 -75 -55 -121q-54 -45 -147 -45h-27h-31z" />
    <glyph glyph-name="ythhoi" unicode="&#x1ef7;" horiz-adv-x="1300" 
d="M410 90l-449 944h551l78 -264q2 -2 2.5 -4.5t1.5 -5.5q55 -195 63 -281q9 40 17 72.5t16.5 64.5t14.5 56q8 39 26 104l76 258h516l-631 -1456h-534zM604 1137v141h19h12q27 0 37 10q10 7 10 31q0 16 -2 20q-4 4 -18 4q-16 0 -19 -6q-4 -8 -4 -28h-180q3 83 57 131
q55 49 146 49q93 0 147 -51q55 -52 55 -135q0 -76 -55 -121q-54 -45 -147 -45h-27h-31z" />
    <glyph glyph-name="yhoanga" unicode="&#x1ef8;" horiz-adv-x="1305" 
d="M375 0v647l-490 817h600l123 -284q26 -64 39 -111q2 -4 2.5 -6t1.5 -4q8 30 37 102q4 8 5.5 12.5t2.5 6.5l121 284h596l-508 -817v-647h-530zM897 1796h-2q-22 -101 -57.5 -145.5t-100.5 -44.5h-24q-7 0 -27 4l-68 18q-10 2 -26 2h-19q-23 0 -38 -12q-15 -11 -25 -41h-88
q17 88 55 137q37 43 98 43h31q11 0 35 -4l70 -18h18h19q22 0 38 16q17 16 23 45h88z" />
    <glyph glyph-name="ythnga" unicode="&#x1ef9;" horiz-adv-x="1300" 
d="M410 90l-449 944h551l78 -264q2 -2 2.5 -4.5t1.5 -5.5q55 -195 63 -281q9 40 17 72.5t16.5 64.5t14.5 56q8 39 26 104l76 258h516l-631 -1456h-534zM920 1356h-2q-23 -103 -58 -146q-36 -45 -100 -45h-25q-6 0 -26 4l-68 19q-10 2 -27 2h-18q-24 0 -39 -12
q-14 -13 -25 -41h-88q20 92 56 137q36 43 98 43h31q9 0 35 -4l69 -19h19h18q24 0 39 17q17 17 22 45h89z" />
    <glyph glyph-name="emdash" unicode="&#x2013;" horiz-adv-x="2048" 
d="M0 326v379h2048v-379h-2048z" />
    <glyph glyph-name="endash" unicode="&#x2014;" horiz-adv-x="1024" 
d="M0 326v379h1024v-379h-1024z" />
    <glyph glyph-name="quoteleft" unicode="&#x2018;" horiz-adv-x="702" 
d="M719 1464l-236 -725h-501l346 725h391z" />
    <glyph glyph-name="quoteright" unicode="&#x2019;" horiz-adv-x="702" 
d="M-18 739l237 725h500l-344 -725h-393z" />
    <glyph glyph-name="quotesinglbase" unicode="&#x201a;" horiz-adv-x="702" 
d="M-18 -350l237 725h500l-344 -725h-393z" />
    <glyph glyph-name="quotedblleft" unicode="&#x201c;" horiz-adv-x="1341" 
d="M1360 1464l-238 -725h-499l344 725h393zM719 1464l-236 -725h-501l346 725h391z" />
    <glyph glyph-name="quotedblright" unicode="&#x201d;" horiz-adv-x="1341" 
d="M-18 739l237 725h500l-344 -725h-393zM623 739l235 725h502l-346 -725h-391z" />
    <glyph glyph-name="quotedblbase" unicode="&#x201e;" horiz-adv-x="1341" 
d="M623 -350l235 725h502l-346 -725h-391zM-18 -350l237 725h500l-344 -725h-393z" />
    <glyph glyph-name="dagger" unicode="&#x2020;" horiz-adv-x="1327" 
d="M426 -446v1073h-303v444h303v393h475v-393h303v-444h-303v-1073h-475z" />
    <glyph glyph-name="daggerdbl" unicode="&#x2021;" horiz-adv-x="1327" 
d="M453 -446v350h-332v385h332v459h-332v387h332v329h421v-329h332v-387h-332v-459h332v-385h-332v-350h-421z" />
    <glyph glyph-name="bullet" unicode="&#x2022;" horiz-adv-x="1208" 
d="M307 762q0 121 86 209q91 86 211 86t209 -86q86 -88 86 -209t-88 -209q-85 -88 -209 -88q-122 0 -209 88q-86 86 -86 209z" />
    <glyph glyph-name="ellipsis" unicode="&#x2026;" horiz-adv-x="2048" 
d="M55 209q0 97 84 172q83 70 201 70q120 0 203 -70q82 -73 82 -172q0 -98 -82 -168q-86 -72 -203 -72t-203 72q-82 70 -82 168zM737 209q0 97 84 172q83 70 201 70q120 0 203 -70q82 -73 82 -172q0 -98 -82 -168q-86 -72 -203 -72q-119 0 -203 72q-82 70 -82 168zM1421 209
q0 97 84 172q83 70 201 70q120 0 203 -70q82 -73 82 -172q0 -98 -82 -168q-86 -72 -203 -72t-203 72q-82 70 -82 168z" />
    <glyph glyph-name="perthousand" unicode="&#x2030;" horiz-adv-x="2707" 
d="M428 879q44 0 61 45q19 44 19 151q0 109 -19 154q-17 45 -61 45t-61 -45q-21 -43 -21 -154q0 -107 21 -149q18 -47 61 -47zM803 1075q0 -184 -103 -293q-101 -110 -274 -110q-172 0 -274 108q-103 112 -103 295t103 295q101 109 274 109t274 -109q103 -112 103 -295z
M2298 168q42 0 63 47q19 45 19 152q0 106 -19.5 151t-62.5 45t-62 -45q-20 -44 -20 -151q0 -108 20 -152q20 -47 62 -47zM2675 367q0 -184 -103 -295q-100 -111 -274 -111q-173 0 -275 111q-102 108 -102 295q0 185 102 295q103 108 275 108t274 -108q103 -109 103 -295z
M1444 168q44 0 61 45q19 45 19 154q0 106 -19 151q-17 45 -61 45q-43 0 -62 -45q-20 -44 -20 -151q0 -108 20 -152q20 -47 62 -47zM1819 367q0 -187 -103 -295q-100 -111 -272 -111q-173 0 -275 111q-102 108 -102 295q0 185 102 295q103 108 275 108t274 -108
q101 -107 101 -295zM408 -39l845 1518h211l-850 -1518h-206z" />
    <glyph glyph-name="guilsinglleft" unicode="&#x2039;" horiz-adv-x="621" 
d="M362 80l-296 434l296 434l193 -133l-217 -301l215 -301z" />
    <glyph glyph-name="guilsinglright" unicode="&#x203a;" horiz-adv-x="621" 
d="M258 80l-192 133l217 301l-220 301l195 133l297 -434z" />
    <glyph glyph-name="trademark" unicode="&#x2122;" horiz-adv-x="1507" 
d="M641 532h219l-45 166q-34 129 -45 195q-11 59 -14 127h-11q-3 -68 -14 -127q-14 -81 -45 -195zM-57 0l522 1464h586l512 -1464h-566l-47 184h-397l-45 -184h-565zM496 1761l108 2q3 -52 39 -75q34 -23 105 -23q69 0 106 25q35 24 35 75h104q-9 -120 -69.5 -174.5
t-178.5 -54.5q-119 0 -180 55q-63 57 -69 170z" />
    <glyph glyph-name="absachoa" unicode="&#xf006;" 
d="M-215 1997l-234 -262h-122l135 262h221z" />
    <glyph glyph-name="sac" unicode="&#xf008;" 
d="M-492 1423l-233 -262h-123l135 262h221z" />
    <glyph glyph-name="aasacth" unicode="&#xf009;" 
d="M-266 1669l-234 -262h-123l136 262h221z" />
    <glyph glyph-name="asacth" unicode="&#xf00a;" 
d="M-492 1423l-233 -262h-123l135 262h221z" />
    <glyph glyph-name="abhuyenhoa" unicode="&#xf00b;" 
d="M-788 2017h221l135 -262h-123z" />
    <glyph glyph-name="huyen" unicode="&#xf00d;" 
d="M-901 1413h221l135 -262h-123z" />
    <glyph glyph-name="aahuyenth" unicode="&#xf00e;" 
d="M-829 1669h221l135 -262h-123z" />
    <glyph glyph-name="ahuyenth" unicode="&#xf00f;" 
d="M-901 1413h221l135 -262h-123z" />
    <glyph glyph-name="abhoihoa" unicode="&#xf010;" 
d="M-563 1731v141h18h13q26 0 36 10q11 7 11 31q0 16 -2 20q-5 4 -19 4q-15 0 -18 -6q-4 -8 -4 -28h-181q3 82 58 131q57 49 145 49q92 0 148 -51q55 -53 55 -136q0 -74 -55 -120q-54 -45 -148 -45h-26h-31z" />
    <glyph glyph-name="ahoihoa" unicode="&#xf011;" 
d="M-911 1587v142h18h12q27 0 37 10q10 7 10 30q0 17 -2 21q-4 4 -18 4q-15 0 -18 -6q-5 -10 -5 -29h-180q3 83 58 131q53 49 145 49q95 0 147 -51q56 -53 56 -135q0 -74 -56 -121q-54 -45 -147 -45h-27h-30z" />
    <glyph glyph-name="hoi" unicode="&#xf012;" 
d="M-727 1147v141h18h13q26 0 36.5 9.5t10.5 31.5q0 17 -2 21q-4 4 -19 4t-18 -6q-4 -10 -4 -29h-180q3 83 57 131q55 49 145 49q94 0 148 -51q55 -52 55 -135q0 -75 -55 -121q-54 -45 -148 -45h-26h-31z" />
    <glyph glyph-name="aahoith" unicode="&#xf013;" 
d="M-625 1403v141h19h12q27 0 37 9.5t10 31.5q0 17 -2 21q-4 4 -18 4q-16 0 -19 -6q-4 -10 -4 -29h-180q3 83 57 131q55 49 146 49q93 0 147 -51q55 -52 55 -135q0 -75 -55 -121q-54 -45 -147 -45h-27h-31z" />
    <glyph glyph-name="ahoith" unicode="&#xf014;" 
d="M-727 1147v141h18h13q26 0 36.5 9.5t10.5 31.5q0 17 -2 21q-4 4 -19 4t-18 -6q-4 -10 -4 -29h-180q3 83 57 131q55 49 145 49q94 0 148 -51q55 -52 55 -135q0 -75 -55 -121q-54 -45 -148 -45h-26h-31z" />
    <glyph glyph-name="abngahoa" unicode="&#xf015;" 
d="M-532 2089h-3q-22 -103 -57 -145q-36 -46 -100 -46h-25q-1 0 -26 5l-68 18q-10 2 -27 2h-18q-24 0 -39 -12q-13 -11 -25 -41h-88q20 92 56 137q36 43 98 43h31q9 0 35 -4l69 -18h19h18q23 0 39 16q17 17 22 45h89z" />
    <glyph glyph-name="abngahoa" unicode="&#xf02f;" 
d="M-532 2089h-3q-22 -103 -57 -145q-36 -46 -100 -46h-25q-1 0 -26 5l-68 18q-10 2 -27 2h-18q-24 0 -39 -12q-13 -11 -25 -41h-88q20 92 56 137q36 43 98 43h31q9 0 35 -4l69 -18h19h18q23 0 39 16q17 17 22 45h89z" />
    <glyph glyph-name="abngahoa" unicode="&#xf02d;" 
d="M-532 2089h-3q-22 -103 -57 -145q-36 -46 -100 -46h-25q-1 0 -26 5l-68 18q-10 2 -27 2h-18q-24 0 -39 -12q-13 -11 -25 -41h-88q20 92 56 137q36 43 98 43h31q9 0 35 -4l69 -18h19h18q23 0 39 16q17 17 22 45h89z" />
    <glyph glyph-name="aangath" unicode="&#xf018;" 
d="M-297 1649h-2q-21 -100 -57 -146q-37 -45 -101 -45h-24q-7 0 -27 4l-67 19q-11 2 -27 2h-19q-24 0 -38 -13q-15 -11 -25 -40h-88q17 88 55 137q38 43 99 43h30q11 0 35 -4l70 -19h18h19q23 0 38 17q17 16 23 45h88z" />
    <glyph glyph-name="angath" unicode="&#xf019;" 
d="M-410 1362h-2q-22 -103 -57 -145q-37 -46 -100 -46h-25q-4 0 -15.5 2.5l-11.5 2.5l-67 18q-10 2 -27 2h-18q-24 0 -39 -12t-25 -41h-88q20 92 56 137q36 43 98 43h31q10 0 34 -4l70 -19h18h19q22 0 39 17t22 45h88z" />
    <glyph glyph-name="angath" unicode="&#xf01b;" 
d="M-410 1362h-2q-22 -103 -57 -145q-37 -46 -100 -46h-25q-4 0 -15.5 2.5l-11.5 2.5l-67 18q-10 2 -27 2h-18q-24 0 -39 -12t-25 -41h-88q20 92 56 137q36 43 98 43h31q10 0 34 -4l70 -19h18h19q22 0 39 17t22 45h88z" />
    <glyph glyph-name="angath" unicode="&#xf01a;" 
d="M-410 1362h-2q-22 -103 -57 -145q-37 -46 -100 -46h-25q-4 0 -15.5 2.5l-11.5 2.5l-67 18q-10 2 -27 2h-18q-24 0 -39 -12t-25 -41h-88q20 92 56 137q36 43 98 43h31q10 0 34 -4l70 -19h18h19q22 0 39 17t22 45h88z" />
    <glyph glyph-name="nga" unicode="&#xf01d;" 
d="M-410 1362h-2q-22 -103 -57 -145q-37 -46 -100 -46h-25q-4 0 -15.5 2.5l-11.5 2.5l-67 18q-10 2 -27 2h-18q-24 0 -39 -12t-25 -41h-88q20 92 56 137q36 43 98 43h31q10 0 34 -4l70 -19h18h19q22 0 39 17t22 45h88z" />
    <glyph glyph-name="anangth" unicode="&#xf023;" 
d="M-522 -276q0 -57 -37 -89q-37 -30 -100 -30t-101 30q-37 32 -37 89q0 56 37 88q35 28 101 28q65 0 100 -28q37 -32 37 -88z" />
    <glyph glyph-name="anangth" unicode="&#xf02c;" 
d="M-522 -276q0 -57 -37 -89q-37 -30 -100 -30t-101 30q-37 32 -37 89q0 56 37 88q35 28 101 28q65 0 100 -28q37 -32 37 -88z" />
    <glyph glyph-name="anangth" unicode="&#xf028;" 
d="M-522 -276q0 -57 -37 -89q-37 -30 -100 -30t-101 30q-37 32 -37 89q0 56 37 88q35 28 101 28q65 0 100 -28q37 -32 37 -88z" />
    <glyph glyph-name="anangth" unicode="&#xf027;" 
d="M-522 -276q0 -57 -37 -89q-37 -30 -100 -30t-101 30q-37 32 -37 89q0 56 37 88q35 28 101 28q65 0 100 -28q37 -32 37 -88z" />
    <glyph glyph-name="anangth" unicode="&#xf026;" 
d="M-522 -276q0 -57 -37 -89q-37 -30 -100 -30t-101 30q-37 32 -37 89q0 56 37 88q35 28 101 28q65 0 100 -28q37 -32 37 -88z" />
    <glyph glyph-name="anangth" unicode="&#xf025;" 
d="M-522 -276q0 -57 -37 -89q-37 -30 -100 -30t-101 30q-37 32 -37 89q0 56 37 88q35 28 101 28q65 0 100 -28q37 -32 37 -88z" />
    <glyph glyph-name="anangth" unicode="&#xf024;" 
d="M-522 -276q0 -57 -37 -89q-37 -30 -100 -30t-101 30q-37 32 -37 89q0 56 37 88q35 28 101 28q65 0 100 -28q37 -32 37 -88z" />
    <glyph glyph-name="nang" unicode="&#xf02a;" 
d="M-502 -287q0 -57 -37 -88t-100 -31t-100 31t-37 88q0 58 37 88q33 29 100 29t100 -29q37 -30 37 -88z" />
    <glyph glyph-name="lslash" 
 />
    <glyph glyph-name="dotaccent" horiz-adv-x="1024" 
d="M356 1356q0 59 47 106t109 47q66 0 111 -45q45 -42 45 -108t-43 -111q-45 -45 -113 -45q-60 0 -109 47q-47 49 -47 109z" />
    <glyph glyph-name="hungarumlaut" horiz-adv-x="1024" 
d="M563 1169l148 353h262l-275 -353h-135zM387 1522h252l-238 -353h-125z" />
    <glyph glyph-name="fi" horiz-adv-x="1612" 
d="M1513 1356q0 -112 -73 -176q-75 -66 -199 -66q-123 0 -197 66q-73 64 -73 176t73 176q70 63 197 63t199 -63q73 -64 73 -176zM991 0v1034h502v-1034h-502zM176 0v653h-135v381h135v117q0 215 115 330q116 114 330 114q56 0 112 -6q53 -6 113 -18v-389q1 0 -23 4
q-48 4 -49 4q-51 0 -74 -29q-22 -28 -22 -96v-31h168v-381h-168v-653h-502z" />
    <glyph glyph-name="aa" horiz-adv-x="2" 
d="M-246 1198l109 2q3 -51 39 -76q33 -22 104 -22q69 0 107 24q34 26 34 76h105q-9 -119 -70 -174t-178 -55q-119 0 -180 55q-64 58 -70 170z" />
    <glyph glyph-name="ab" horiz-adv-x="2" 
d="M-338 993l145 262h220l145 -262h-123l-131 127l-133 -127h-123z" />
    <glyph glyph-name="abth" horiz-adv-x="1389" 
d="M549 520q0 -68 37 -106q33 -41 92 -41q61 0 94 41q35 40 35 106q0 68 -35 109q-38 41 -94 41q-57 0 -92 -41q-37 -40 -37 -109zM823 0v156q-77 -103 -157 -148q-85 -47 -181 -47q-179 0 -299 154q-58 73 -88 173.5t-30 219.5q0 253 116 405q114 154 301 154q97 0 174 -41
q79 -44 146 -129v137h481v-1034h-463zM485 1149l146 262h219l145 -262h-123l-131 127l-133 -127h-123z" />
    <glyph glyph-name="abhoa" horiz-adv-x="1507" 
d="M641 532h219l-45 166q-34 129 -45 195q-11 59 -14 127h-11q-3 -68 -14 -127q-14 -81 -45 -195zM-57 0l522 1464h586l512 -1464h-566l-47 184h-397l-45 -184h-565zM485 1526l146 262h219l145 -262h-123l-131 127l-133 -127h-123z" />
    <glyph glyph-name="ebth" horiz-adv-x="1321" 
d="M1272 434h-713v-16q0 -76 29 -117q26 -39 86 -39q36 0 61 21q26 19 41 59l465 -31q-61 -167 -211 -260q-149 -90 -364 -90q-120 0 -224 37q-111 40 -188 106q-94 83 -143 187q-50 108 -50 223q0 120 52 225q23 53 57 97t84 88q85 73 186 106q104 37 226 37q81 0 158 -17
t141 -49q127 -65 219 -194q46 -66 67 -143q23 -80 23 -172v-35q0 -17 -2 -23zM563 659l228 -2q-5 63 -31 91q-28 30 -82 30q-46 0 -78 -30q-28 -33 -37 -89zM391 1128l146 263h219l145 -263h-123l-131 127l-133 -127h-123z" />
    <glyph glyph-name="ebhoa" horiz-adv-x="1204" 
d="M137 0v1464h979v-397h-463v-141h420v-375h-420v-154h475v-397h-991zM362 1536l146 262h219l145 -262h-122l-132 127l-133 -127h-123z" />
    <glyph glyph-name="obth" horiz-adv-x="1331" 
d="M666 373q55 0 88 39q34 40 34 102q0 64 -32 102q-33 39 -90 39q-56 0 -88 -39q-35 -40 -35 -102t35 -102q32 -39 88 -39zM1270 514q0 -114 -49 -223q-52 -107 -144 -187q-79 -67 -184 -106q-107 -37 -227 -37q-122 0 -226 37q-101 33 -186 106q-93 79 -141 187
q-52 105 -52 223q0 120 52 225q23 53 57 97t84 88q85 73 186 106q104 37 226 37q120 0 226.5 -37t186.5 -106q90 -78 142 -185q49 -109 49 -225zM389 1128l146 263h219l145 -263h-123l-131 127l-133 -127h-123z" />
    <glyph glyph-name="obhoa" horiz-adv-x="1735" 
d="M868 453q111 0 179 75q67 77 67 201q0 127 -67 203q-69 76 -179 76t-180 -76q-67 -76 -67 -203q0 -124 67 -201q69 -75 180 -75zM1651 729q0 -162 -58 -299q-60 -142 -166 -248q-108 -105 -253 -164q-145 -57 -306 -57q-163 0 -307 57q-140 57 -254 166
q-110 111 -166 244q-55 137 -55 301t55 301q58 136 166 246q110 107 252 166q143 55 309 55q164 0 308 -55q143 -58 254 -166q106 -108 165 -246q56 -139 56 -301zM596 1548l145 262h220l145 -262h-123l-131 127l-133 -127h-123z" />
    <glyph glyph-name="athsac" horiz-adv-x="1389" 
d="M549 520q0 -68 37 -106q33 -41 92 -41q61 0 94 41q35 40 35 106q0 68 -35 109q-38 41 -94 41q-57 0 -92 -41q-37 -40 -37 -109zM823 0v156q-77 -103 -157 -148q-85 -47 -181 -47q-179 0 -299 154q-58 73 -88 173.5t-30 219.5q0 253 116 405q114 154 301 154q97 0 174 -41
q79 -44 146 -129v137h481v-1034h-463zM971 1432l-234 -263h-123l136 263h221z" />
    <glyph glyph-name="athhuyen" horiz-adv-x="1389" 
d="M549 520q0 -68 37 -106q33 -41 92 -41q61 0 94 41q35 40 35 106q0 68 -35 109q-38 41 -94 41q-57 0 -92 -41q-37 -40 -37 -109zM823 0v156q-77 -103 -157 -148q-85 -47 -181 -47q-179 0 -299 154q-58 73 -88 173.5t-30 219.5q0 253 116 405q114 154 301 154q97 0 174 -41
q79 -44 146 -129v137h481v-1034h-463zM571 1432h222l135 -263h-123z" />
    <glyph glyph-name="athnga" horiz-adv-x="1389" 
d="M549 520q0 -68 37 -106q33 -41 92 -41q61 0 94 41q35 40 35 106q0 68 -35 109q-38 41 -94 41q-57 0 -92 -41q-37 -40 -37 -109zM823 0v156q-77 -103 -157 -148q-85 -47 -181 -47q-179 0 -299 154q-58 73 -88 173.5t-30 219.5q0 253 116 405q114 154 301 154q97 0 174 -41
q79 -44 146 -129v137h481v-1034h-463zM1016 1389h-2q-23 -103 -58 -146q-35 -45 -100 -45h-25q-6 0 -26 4l-68 19q-10 2 -26 2h-19q-23 0 -39 -13q-15 -12 -24 -41h-88q18 92 55 138q38 43 98 43h31q11 0 35 -4l69 -19h19h18q23 0 39 16q18 20 23 46h88z" />
    <glyph glyph-name="ahoasac" horiz-adv-x="1507" 
d="M641 532h219l-45 166q-34 129 -45 195q-11 59 -14 127h-11q-3 -68 -14 -127q-14 -81 -45 -195zM-57 0l522 1464h586l512 -1464h-566l-47 184h-397l-45 -184h-565zM1018 1829l-234 -262h-122l135 262h221z" />
    <glyph glyph-name="ahoahuyen" horiz-adv-x="1507" 
d="M641 532h219l-45 166q-34 129 -45 195q-11 59 -14 127h-11q-3 -68 -14 -127q-14 -81 -45 -195zM-57 0l522 1464h586l512 -1464h-566l-47 184h-397l-45 -184h-565zM526 1829h222l135 -262h-123z" />
    <glyph glyph-name="ahoanga" horiz-adv-x="1507" 
d="M641 532h219l-45 166q-34 129 -45 195q-11 59 -14 127h-11q-3 -68 -14 -127q-14 -81 -45 -195zM-57 0l522 1464h586l512 -1464h-566l-47 184h-397l-45 -184h-565zM1001 1786h-2q-22 -102 -57.5 -146.5t-99.5 -44.5h-25q-6 0 -26 4l-68 19q-10 2 -27 2h-18q-24 0 -39 -12
q-14 -13 -25 -41h-88q20 92 56 137q36 43 98 43h31q10 0 34 -4l70 -19h19h18q22 0 39 17t22 45h88z" />
    <glyph glyph-name="ethsac" horiz-adv-x="1321" 
d="M1272 434h-713v-16q0 -76 29 -117q26 -39 86 -39q36 0 61 21q26 19 41 59l465 -31q-61 -167 -211 -260q-149 -90 -364 -90q-120 0 -224 37q-111 40 -188 106q-94 83 -143 187q-50 108 -50 223q0 120 52 225q23 53 57 97t84 88q85 73 186 106q104 37 226 37q81 0 158 -17
t141 -49q127 -65 219 -194q46 -66 67 -143q23 -80 23 -172v-35q0 -17 -2 -23zM563 659l228 -2q-5 63 -31 91q-28 30 -82 30q-46 0 -78 -30q-28 -33 -37 -89zM963 1432l-234 -263h-123l135 263h222z" />
    <glyph glyph-name="ethhuyen" horiz-adv-x="1321" 
d="M1272 434h-713v-16q0 -76 29 -117q26 -39 86 -39q36 0 61 21q26 19 41 59l465 -31q-61 -167 -211 -260q-149 -90 -364 -90q-120 0 -224 37q-111 40 -188 106q-94 83 -143 187q-50 108 -50 223q0 120 52 225q23 53 57 97t84 88q85 73 186 106q104 37 226 37q81 0 158 -17
t141 -49q127 -65 219 -194q46 -66 67 -143q23 -80 23 -172v-35q0 -17 -2 -23zM563 659l228 -2q-5 63 -31 91q-28 30 -82 30q-46 0 -78 -30q-28 -33 -37 -89zM440 1432h222l135 -263h-123z" />
    <glyph glyph-name="ehoasac" horiz-adv-x="1204" 
d="M137 0v1464h979v-397h-463v-141h420v-375h-420v-154h475v-397h-991zM907 1839l-233 -262h-123l135 262h221z" />
    <glyph glyph-name="ehoahuyen" horiz-adv-x="1204" 
d="M137 0v1464h979v-397h-463v-141h420v-375h-420v-154h475v-397h-991zM375 1829h221l135 -262h-123z" />
    <glyph glyph-name="othsac" horiz-adv-x="1331" 
d="M666 373q55 0 88 39q34 40 34 102q0 64 -32 102q-33 39 -90 39q-56 0 -88 -39q-35 -40 -35 -102t35 -102q32 -39 88 -39zM1270 514q0 -114 -49 -223q-52 -107 -144 -187q-79 -67 -184 -106q-107 -37 -227 -37q-122 0 -226 37q-101 33 -186 106q-93 79 -141 187
q-52 105 -52 223q0 120 52 225q23 53 57 97t84 88q85 73 186 106q104 37 226 37q120 0 226.5 -37t186.5 -106q90 -78 142 -185q49 -109 49 -225zM889 1432l-234 -263h-123l136 263h221z" />
    <glyph glyph-name="othhuyen" horiz-adv-x="1331" 
d="M666 373q55 0 88 39q34 40 34 102q0 64 -32 102q-33 39 -90 39q-56 0 -88 -39q-35 -40 -35 -102t35 -102q32 -39 88 -39zM1270 514q0 -114 -49 -223q-52 -107 -144 -187q-79 -67 -184 -106q-107 -37 -227 -37q-122 0 -226 37q-101 33 -186 106q-93 79 -141 187
q-52 105 -52 223q0 120 52 225q23 53 57 97t84 88q85 73 186 106q104 37 226 37q120 0 226.5 -37t186.5 -106q90 -78 142 -185q49 -109 49 -225zM459 1432h221l135 -263h-123z" />
    <glyph glyph-name="othnga" horiz-adv-x="1331" 
d="M666 373q55 0 88 39q34 40 34 102q0 64 -32 102q-33 39 -90 39q-56 0 -88 -39q-35 -40 -35 -102t35 -102q32 -39 88 -39zM1270 514q0 -114 -49 -223q-52 -107 -144 -187q-79 -67 -184 -106q-107 -37 -227 -37q-122 0 -226 37q-101 33 -186 106q-93 79 -141 187
q-52 105 -52 223q0 120 52 225q23 53 57 97t84 88q85 73 186 106q104 37 226 37q120 0 226.5 -37t186.5 -106q90 -78 142 -185q49 -109 49 -225zM903 1389h-2q-21 -100 -57 -146q-36 -45 -101 -45h-24q-7 0 -27 4l-67 19q-11 2 -27 2h-18q-25 0 -39 -13q-16 -11 -25 -41h-88
q17 89 55 138q38 43 99 43h30q11 0 35 -4l70 -19h18h19q21 0 39 16q17 18 22 46h88z" />
    <glyph glyph-name="ohoasac" horiz-adv-x="1735" 
d="M868 453q111 0 179 75q67 77 67 201q0 127 -67 203q-69 76 -179 76t-180 -76q-67 -76 -67 -203q0 -124 67 -201q69 -75 180 -75zM1651 729q0 -162 -58 -299q-60 -142 -166 -248q-108 -105 -253 -164q-145 -57 -306 -57q-163 0 -307 57q-140 57 -254 166
q-110 111 -166 244q-55 137 -55 301t55 301q58 136 166 246q110 107 252 166q143 55 309 55q164 0 308 -55q143 -58 254 -166q106 -108 165 -246q56 -139 56 -301zM1163 1862l-233 -263h-123l135 263h221z" />
    <glyph glyph-name="ohoahuyen" horiz-adv-x="1735" 
d="M868 453q111 0 179 75q67 77 67 201q0 127 -67 203q-69 76 -179 76t-180 -76q-67 -76 -67 -203q0 -124 67 -201q69 -75 180 -75zM1651 729q0 -162 -58 -299q-60 -142 -166 -248q-108 -105 -253 -164q-145 -57 -306 -57q-163 0 -307 57q-140 57 -254 166
q-110 111 -166 244q-55 137 -55 301t55 301q58 136 166 246q110 107 252 166q143 55 309 55q164 0 308 -55q143 -58 254 -166q106 -108 165 -246q56 -139 56 -301zM641 1862h221l135 -263h-123z" />
    <glyph glyph-name="ohoanga" horiz-adv-x="1735" 
d="M868 453q111 0 179 75q67 77 67 201q0 127 -67 203q-69 76 -179 76t-180 -76q-67 -76 -67 -203q0 -124 67 -201q69 -75 180 -75zM1651 729q0 -162 -58 -299q-60 -142 -166 -248q-108 -105 -253 -164q-145 -57 -306 -57q-163 0 -307 57q-140 57 -254 166
q-110 111 -166 244q-55 137 -55 301t55 301q58 136 166 246q110 107 252 166q143 55 309 55q164 0 308 -55q143 -58 254 -166q106 -108 165 -246q56 -139 56 -301zM1106 1819h-2q-21 -100 -57 -146q-36 -45 -101 -45h-24q-7 0 -27 4l-68 19q-10 2 -26 2h-19q-23 0 -39 -13
q-15 -12 -24 -41h-88q17 89 55 138q38 43 98 43h31q11 0 35 -4l70 -19h18h18q24 0 39 17q17 16 23 45h88z" />
    <glyph glyph-name="ithsac" horiz-adv-x="739" 
d="M119 -4v1034h502v-1034h-502zM618 1423l-233 -262h-123l135 262h221z" />
    <glyph glyph-name="ithhuyen" horiz-adv-x="739" 
d="M119 -4v1034h502v-1034h-502zM188 1434h222l135 -263h-123z" />
    <glyph glyph-name="ihoasac" horiz-adv-x="829" 
d="M147 0v1464h535v-1464h-535zM596 1860l-234 -263h-122l135 263h221z" />
    <glyph glyph-name="ihoahuyen" horiz-adv-x="829" 
d="M147 0v1464h535v-1464h-535zM197 1839h221l135 -262h-123z" />
    <glyph glyph-name="uthsac" horiz-adv-x="1339" 
d="M94 1034h494v-506q0 -106 18 -141q15 -31 64 -31q44 0 63 29q17 36 17 143v506h493v-557q0 -269 -137 -391q-137 -125 -436 -125t-437.5 124.5t-138.5 391.5v557zM963 1399l-234 -262h-123l135 262h222z" />
    <glyph glyph-name="uthhuyen" horiz-adv-x="1339" 
d="M94 1034h494v-506q0 -106 18 -141q15 -31 64 -31q44 0 63 29q17 36 17 143v506h493v-557q0 -269 -137 -391q-137 -125 -436 -125t-437.5 124.5t-138.5 391.5v557zM440 1399h222l135 -262h-123z" />
    <glyph glyph-name="uhoasac" horiz-adv-x="1602" 
d="M121 670v794h526v-798q0 -141 33 -191q33 -53 113 -53q79 0 112 53q35 56 35 191v798h526v-794q0 -160 -20 -256q-22 -106 -66 -170q-89 -138 -239 -209q-156 -74 -348 -74q-193 0 -349 74q-150 71 -239 209q-41 64 -64 168q-20 96 -20 258zM1087 1829l-233 -262h-123
l135 262h221z" />
    <glyph glyph-name="uhoahuyen" horiz-adv-x="1602" 
d="M121 670v794h526v-798q0 -141 33 -191q33 -53 113 -53q79 0 112 53q35 56 35 191v798h526v-794q0 -160 -20 -256q-22 -106 -66 -170q-89 -138 -239 -209q-156 -74 -348 -74q-193 0 -349 74q-150 71 -239 209q-41 64 -64 168q-20 96 -20 258zM504 1829h221l135 -262h-123z
" />
    <glyph glyph-name="ythsac" horiz-adv-x="1300" 
d="M410 90l-449 944h551l78 -264q2 -2 2.5 -4.5t1.5 -5.5q55 -195 63 -281q9 40 17 72.5t16.5 64.5t14.5 56q8 39 26 104l76 258h516l-631 -1456h-534zM956 1409l-233 -262h-123l135 262h221z" />
    <glyph glyph-name="yhoasac" horiz-adv-x="1305" 
d="M375 0v647l-490 817h600l123 -284q26 -64 39 -111q2 -4 2.5 -6t1.5 -4q8 30 37 102q4 8 5.5 12.5t2.5 6.5l121 284h596l-508 -817v-647h-530zM924 1849l-234 -262h-123l135 262h222z" />
    <glyph glyph-name="aasachoa" 
d="M-492 2079l-233 -262h-123l135 262h221z" />
    <glyph glyph-name="aahuyenhoa" 
d="M-1044 2079h221l135 -262h-123z" />
    <glyph glyph-name="aahoihoa" 
d="M-799 1823v141h19h12q27 0 37 10q10 7 10 31q0 16 -2 20q-4 5 -18 5q-16 0 -19.5 -7.5t-3.5 -27.5h-180q3 83 57 131q55 49 146 49q93 0 147 -51q55 -52 55 -135q0 -76 -55 -121q-54 -45 -147 -45h-27h-31z" />
    <glyph glyph-name="aangahoa" 
d="M-471 2058h-2q-21 -99 -57 -145q-36 -45 -101 -45h-24q-7 0 -27 4l-68 18q-10 2 -26 2h-19q-22 0 -39 -12q-15 -12 -24 -41h-88q17 90 55 137q37 43 98 43h31q11 0 35 -4l70 -18h18h18q23 0 39 16q17 16 23 45h88z" />
    <glyph glyph-name="cth" 
d="M-819 1362l108 2q3 -50 39 -76q34 -22 105 -22q70 0 106 24q35 26 35 76h104q-9 -120 -69.5 -174.5t-177.5 -54.5q-120 0 -181 55q-63 57 -69 170z" />
    <glyph glyph-name="csacth" 
d="M-819 1362l108 2q3 -50 39 -76q34 -22 105 -22q70 0 106 24q35 26 35 76h104q-9 -120 -69.5 -174.5t-177.5 -54.5q-120 0 -181 55q-63 57 -69 170zM-283 1710l-233 -262h-123l135 262h221z" />
    <glyph glyph-name="chuyenth" 
d="M-819 1362l108 2q3 -50 39 -76q34 -22 105 -22q70 0 106 24q35 26 35 76h104q-9 -120 -69.5 -174.5t-177.5 -54.5q-120 0 -181 55q-63 57 -69 170zM-836 1710h222l135 -262h-123z" />
    <glyph glyph-name="choith" 
d="M-819 1362l108 2q3 -50 39 -76q34 -22 105 -22q70 0 106 24q35 26 35 76h104q-9 -120 -69.5 -174.5t-177.5 -54.5q-120 0 -181 55q-63 57 -69 170zM-614 1427v142h18h12q27 0 37 10q10 7 10 31q0 16 -2 20q-4 4 -18 4q-15 0 -18 -6q-5 -7 -5 -29h-180q3 83 58 132t145 49
q93 0 147 -51q56 -53 56 -136q0 -75 -56 -120q-53 -46 -147 -46h-27h-30z" />
    <glyph glyph-name="cngath" 
d="M-819 1362l108 2q3 -50 39 -76q34 -22 105 -22q70 0 106 24q35 26 35 76h104q-9 -120 -69.5 -174.5t-177.5 -54.5q-120 0 -181 55q-63 57 -69 170zM-319 1688h-3q-22 -102 -57 -146.5t-100 -44.5h-25q-6 0 -26 4l-68 19q-10 2 -27 2h-18q-25 0 -39 -13q-14 -11 -25 -41
h-88q19 93 56 138q37 43 98 43h31q9 0 35 -4l69 -19h19h18q23 0 39 16q17 18 22 46h89z" />
    <glyph glyph-name="cnangth" 
d="M-819 1362l108 2q3 -50 39 -76q34 -22 105 -22q70 0 106 24q35 26 35 76h104q-9 -120 -69.5 -174.5t-177.5 -54.5q-120 0 -181 55q-63 57 -69 170zM-506 -244q0 -57 -37 -88q-36 -30 -100 -30t-100 30q-37 31 -37 88q0 58 37 88q33 29 100 29t100 -29q37 -30 37 -88z" />
    <glyph glyph-name="choa" 
d="M-1004 1761l109 2q3 -52 39 -75q34 -23 104 -23t107 25q35 25 35 75h104q-9 -118 -69 -174q-61 -55 -179 -55q-119 0 -180 55q-63 57 -70 170z" />
    <glyph glyph-name="csachoa" 
d="M-1004 1761l109 2q3 -52 39 -75q34 -23 104 -23t107 25q35 25 35 75h104q-9 -118 -69 -174q-61 -55 -179 -55q-119 0 -180 55q-63 57 -70 170zM-467 2109l-233 -262h-123l135 262h221z" />
    <glyph glyph-name="chuyenhoa" 
d="M-1004 1761l109 2q3 -52 39 -75q34 -23 104 -23t107 25q35 25 35 75h104q-9 -118 -69 -174q-61 -55 -179 -55q-119 0 -180 55q-63 57 -70 170zM-1020 2109h221l135 -262h-122z" />
    <glyph glyph-name="choihoa" 
d="M-1004 1761l109 2q3 -52 39 -75q34 -23 104 -23t107 25q35 25 35 75h104q-9 -118 -69 -174q-61 -55 -179 -55q-119 0 -180 55q-63 57 -70 170zM-799 1827v141h19h12q27 0 37 9.5t10 31.5q0 16 -2 21q-4 4 -18 4q-16 0 -19 -6q-4 -10 -4 -29h-180q3 83 57 131
q55 49 146 49q93 0 147 -51q55 -52 55 -135q0 -75 -55 -121q-54 -45 -147 -45h-27h-31z" />
    <glyph glyph-name="cngahoa" 
d="M-1004 1761l109 2q3 -52 39 -75q34 -23 104 -23t107 25q35 25 35 75h104q-9 -118 -69 -174q-61 -55 -179 -55q-119 0 -180 55q-63 57 -70 170zM-504 2087h-2q-21 -100 -57.5 -145.5t-100.5 -45.5h-24q-10 0 -27 5l-67 18q-11 2 -27 2h-18q-24 0 -39 -12q-15 -11 -25 -41
h-88q17 88 55 137q37 43 99 43h30q11 0 35 -4l70 -19h18h19q20 0 39 17q17 17 22 45h88z" />
    <glyph glyph-name="cnanghoa" 
d="M-1004 1761l109 2q3 -52 39 -75q34 -23 104 -23t107 25q35 25 35 75h104q-9 -118 -69 -174q-61 -55 -179 -55q-119 0 -180 55q-63 57 -70 170zM-618 -233q0 -57 -37 -89q-37 -30 -101 -30q-62 0 -100 30q-37 31 -37 89q0 57 37 88q35 28 100 28q66 0 101 -28
q37 -32 37 -88z" />
    <glyph glyph-name="bth" 
d="M-942 1126l145 263h219l146 -263h-123l-131 127l-133 -127h-123z" />
    <glyph glyph-name="bsacth" 
d="M-942 1126l145 263h219l146 -263h-123l-131 127l-133 -127h-123zM-98 1579l-234 -262h-123l136 262h221z" />
    <glyph glyph-name="bhuyenth" 
d="M-942 1126l145 263h219l146 -263h-123l-131 127l-133 -127h-123zM-692 1640h221l135 -262h-123z" />
    <glyph glyph-name="bhoith" 
d="M-942 1126l145 263h219l146 -263h-123l-131 127l-133 -127h-123zM-461 1296v142h19h12q27 0 37 10q10 7 10 31q0 16 -2 20q-4 4 -18 4q-16 0 -19 -6q-4 -8 -4 -29h-180q3 84 57 131q56 50 146 50q92 0 147 -52q55 -51 55 -135q0 -75 -55 -121q-55 -45 -147 -45h-27h-31z
" />
    <glyph glyph-name="bngath" 
d="M-942 1126l145 263h219l146 -263h-123l-131 127l-133 -127h-123zM-442 1679h-2q-24 -102 -58 -145q-35 -45 -100 -45h-25q-6 0 -26 4l-68 18q-10 2 -27 2h-18q-24 0 -39 -12t-24 -41h-89q20 93 56 136.5t98 43.5h31q9 0 35 -4l69 -18h19h18q23 0 39 16q16 18 23 45h88z
" />
    <glyph glyph-name="bnangth" 
d="M-942 1126l145 263h219l146 -263h-123l-131 127l-133 -127h-123zM-567 -264q0 -57 -37 -88t-101 -31q-63 0 -100 31t-37 88q0 56 37 88q36 29 100 29q65 0 101 -29q37 -32 37 -88z" />
    <glyph glyph-name="bhoa" 
d="M-1126 1546l145 262h219l146 -262h-123l-131 127l-134 -127h-122z" />
    <glyph glyph-name="bsachoa" 
d="M-1126 1546l145 262h219l146 -262h-123l-131 127l-134 -127h-122zM-283 1999l-233 -262h-123l135 262h221z" />
    <glyph glyph-name="bhuyenhoa" 
d="M-1126 1546l145 262h219l146 -262h-123l-131 127l-134 -127h-122zM-877 2060h222l135 -262h-123z" />
    <glyph glyph-name="bhoihoa" 
d="M-1126 1546l145 262h219l146 -262h-123l-131 127l-134 -127h-122zM-645 1716v142h18h13q26 0 36 10q11 7 11 30q0 17 -2 21q-4 4 -19 4t-18 -6q-4 -8 -4 -29h-181q5 85 58 131q55 49 145 49q94 0 148 -51q55 -52 55 -135q0 -75 -55 -121q-55 -45 -148 -45h-26h-31z" />
    <glyph glyph-name="bngahoa" 
d="M-1126 1546l145 262h219l146 -262h-123l-131 127l-134 -127h-122zM-627 2099h-2q-21 -99 -57 -145q-36 -45 -100 -45h-25q-5 0 -27 4l-67 18q-10 2 -27 2h-18q-24 0 -39 -12t-25 -41h-88q17 90 55 137q37 43 99 43h30q11 0 35 -4l70 -18h18h19q21 0 39 16q16 16 22 45h88
z" />
    <glyph glyph-name="bnanghoa" 
d="M-1126 1546l145 262h219l146 -262h-123l-131 127l-134 -127h-122zM-731 -264q0 -58 -37 -88.5t-100 -30.5q-64 0 -101 31t-37 88q0 56 37 88q36 29 101 29q64 0 100 -29q37 -31 37 -88z" />
    <glyph glyph-name="nonbreakingspace" horiz-adv-x="1507" 
 />
  </font>
</defs>
</svg>
